Download Looper 2012 DVDRip XViD-MULTiPLY torrent

Fake torrent

Looper 2012 DVDRip XViD-MULTiPLY torrent

Total size: 710.63 Mb Seeds 0 Leechs 0
VideoID : 0Format : MPEG-4 VisualFormat profile : Advanced Simple@L5Format settings, BVOP : YesFormat settings, QPel : NoFormat settings, GMC : No warppointsFormat settings, Matrix : Default (H.263)Codec ID : XVIDCodec ID/Hint : XviDDuration : 2h 4mnBit rate : 996 KbpsWidth : 640 pixelsHeight : 280 pixelsDisplay aspect ratio : 2.25:1Frame rate : 25.000 fpsColor space : YUVChroma subsampling : 4:2:0Bit depth : 8 bitsScan type : ProgressiveBits/(Pixel*Frame) : 0.222Stream size : 590 MiB (83%)Writing library : XviD 1.2.1 (UTC 2008-12-04)AudioID : 1Format : AC-3Format/Info : Audio Coding 3Mode extension : CM (complete main)Codec ID : 2000Duration : 2h 4mnBit rate mode : ConstantBit rate : 192 KbpsChannel(s) : 2 channelsChannel positions : Front: L RSampling rate : 48.0 KHzBit depth : 16 bitsStream size : 172 MiB (16%)Alignment : Aligned on interleavesInterleave, duration : 40 ms (1.00 video frame)Interleave, preload duration : 512 ms
FileSize
Looper.2012.DVDRip.XViD-MULTiPLY/subtitles/English/subtitles.srt46.43 Kb
Looper.2012.DVDRip.XViD-MULTiPLY/subtitles/NL/subtitles.srt69.51 Kb
Looper.2012.DVDRip.XViD-MULTiPLY/subtitles/Polish/subtitles.srt31.13 Kb
Looper.2012.DVDRip.XViD-MULTiPLY/Looper.2012.DVDRip.XViD-MULTiPLY.wmv710.48 Mb
Looper.2012.DVDRip.XViD-MULTiPLY/info.nfo4.96 Kb
Looper.2012.DVDRip.XViD-MULTiPLY/Readme.txt683.00 b
Looper.2012.DVDRip.XViD-MULTiPLY/Torrent downloaded from Extratorrent.com.txt119.00 b
Looper.2012.DVDRip.XViD-MULTiPLY/Torrent downloaded from AhaShare.com.txt59.00 b
Looper.2012.DVDRip.XViD-MULTiPLY/Torrent downloaded from Demonoid.me.txt46.00 b
Looper.2012.DVDRip.XViD-MULTiPLY/Torrent downloaded from silvertorrent.org.txt41.00 b
Looper.2012.DVDRip.XViD-MULTiPLY/Torrent Downloaded From BTScene.eu.txt34.00 b
Looper.2012.DVDRip.XViD-MULTiPLY/Torrent downloaded from Rarbg.com.txt33.00 b
Looper.2012.DVDRip.XViD-MULTiPLY/Torrent downloaded from h33t.com.txt32.00 b
Looper.2012.DVDRip.XViD-MULTiPLY/Torrent downloaded from KAT.ph.txt30.00 b
Looper.2012.DVDRip.XViD-MULTiPLY/tracked_by_h33t_com.txt.txt23.00 b
TrackerSeedsLeechsDownloaded
udp://tracker.openbittorrent.com:80/scrape000
udp://tracker.publicbt.com:80/scrape000
udp://tracker.istole.it:6969/scrape000
http://istole.h1x.com/tracker/scrape.php000
http://tracker.istole.it/scrape000
http://tracker.thepiratebay.org/scrape000
http://pow7.com/scrape000
http://t1.pow7.com/scrape000
http://10.rarbg.com/scrape000
http://tracker.token.ro/scrape000
http://tracker.torrent.to:2710/scrape000
http://tracker.torrentbay.to:6969/scrape000
http://9.rarbg.com:2710/scrape000
Report this torrent
We will carefully monitor this report and react whenever possible.
Thanks for helping us in filtering out bad content and improving TorrentReactor for every other visitor!
Please login or register to be able to report torrents.

Your comment
Please Login or register to be able to add comments.
All comments

No one has added a comment yet. Be the first one.

Related torrents
Looper 2012 DVDRip XViD-MULTiPLY, related to Looper 2012 DVDRip XViD-MULTiPLY