Download Kyss Mig torrent

Kyss Mig torrent

Total size: 1.06 Gb Seeds 11 Leechs 0
  • Direct Download
  • Torrent
    Kyss Mig
    You need a free client. We recommend BitLord
  • Category
  • Added
    on 2012-09-27 03:21:43
  • Hash
    72AB941913DF5ABEF56357624A7E668FF5E83374
  • Health
    85% Complete
  • Trackers
    11
  • Torrent downloaded
    17 times
[img] http://img440.imageshack.us/img440/9310/78816.jpg[/img]With: Ruth Vega Fernandez, Liv Mjönes and Lena EndreMet engelse subs (srt),Mia (Ruth Vega Fernandez) en Frida (Liv Mjönes) ontmoeten elkaar voor het eerst bij het verlovingsfeest van hun ouders. Mia's vader staat op het punt te trouwen met de moeder van Frida, waardoor zij stiefzussen worden. Al snel wordt echter duidelijk dat ze elkaar niet als zussen zien. Mia is druk bezig met de voorbereidingen van haar eigen huwelijk, als de vonk tussen haar en Frida overslaat en alles in de war wordt geschopt.With English subs (srt),MIA (Ruth Vega Fernandez) and FRIDA (Liv Mjönes), both in their thirties, meet each other for the first time at their parents' engagement party...http://www.imdb.com/title/tt1859522------------------------ Dutch Friends ---------------------------------------------------------------------------------------- Bezoek ook eens mijn vrienden op:  http://www.Film-Test.nl ------- voor mijn Nederlandse Sync. ondertitels ---- en meer ----------- http://www.Film-Test.nl ---- voor Films en meer ----------------------------------------------------------------------[COLOR=#DD0000][/COLOR]General:Complete name                    : Kyss MigKyss Mig.aviFormat                           : AVIFormat/Info                      : Audio Video InterleaveFile size                        : 1.06 GiBDuration                         : 1h 43mnOverall bit rate                 : 1 462 KbpsVideo:Format                           : MPEG-4 VisualFormat profile                   : Simple@L3Format settings, BVOP            : NoFormat settings, QPel            : NoFormat settings, GMC             : No warppointsFormat settings, Matrix          : Default (H.263)Codec ID                         : XVIDCodec ID/Hint                    : XviDDuration                         : 1h 43mnBit rate                         : 1 003 KbpsWidth                            : 720 pixelsHeight                           : 304 pixelsDisplay aspect ratio             : 2.35:1Frame rate                       : 25.000 fpsColor space                      : YUVChroma subsampling               : 4:2:0Bit depth                        : 8 bitsScan type                        : ProgressiveCompression mode                 : LossyBits/(Pixel*Frame)               : 0.183Stream size                      : 741 MiB (69%)Writing library                  : XviD 1.1.2 (UTC 2006-11-01)Audio:Format                           : AC-3Format/Info                      : Audio Coding 3Mode extension                   : CM (complete main)Codec ID                         : 2000Duration                         : 1h 43mnBit rate mode                    : ConstantBit rate                         : 448 KbpsChannel(s)                       : 6 channelsChannel positions                : Front: L C R, Side: L R, LFESampling rate                    : 48.0 KHzBit depth                        : 16 bitsCompression mode                 : LossyStream size                      : 331 MiB (31%)Alignment                        : Aligned on interleavesInterleave, duration             : 32 ms (0.80 video frame)Interleave, preload duration     : 128 ms
FileSize
Kyss Mig.avi1.06 Gb
Cover/www.Film-Test.nl.JPG33.37 Kb
www.Film-Test.nl.JPG33.37 Kb
Subs/Kyss Mig.eng.rar20.19 Kb
Cover/Kyss Mig.jpg8.37 Kb
New Dutch Site.txt117.00 b
Torrent downloaded from Demonoid.com.txt47.00 b
TrackerSeedsLeechsDownloaded
udp://tracker.openbittorrent.com:80/scrape302
udp://tracker.publicbt.com:80/scrape302
udp://tracker.istole.it:6969/scrape3010
http://fr33dom.h33t.com:3310/scrape000
http://tracker.torrentfrancais.com/scrape202
http://torrentbay.to:6969/scrape000
http://i.bandito.org/scrape000
http://tracker.torrentbay.to:6969/scrape000
http://exodus.desync.com/scrape000
http://exodus.desync.com:6969/scrape000
http://cpleft.com:2710/scrape000
Report this torrent
We will carefully monitor this report and react whenever possible.
Thanks for helping us in filtering out bad content and improving TorrentReactor for every other visitor!
Please login or register to be able to report torrents.

Your comment

Please Login or register to be able to add comments.

All comments

No one has added a comment yet. Be the first one.

Related torrents

Kyss Mig, related to Kyss Mig