Lawless 2012 DVDRip XviD EXViD

Lawless 2012 DVDRip XviD EXViD

Total size: 713.14 Mb
Removed by the request of copyright owner

Lawless 2012 DVDRip XviD-EXViD
 
http://www.imdb.com/title/tt1212450/
Director: John Hillcoat
Genres: Crime | Drama | Western
Plot:
Set in the Depression-era Franklin County, Virginia,
a bootlegging gang is threatened by authorities who want a cut of their profits. 
Stats:
Format : AVI
Format/Info : Audio Video Interleave
File size : 708 MiB
Duration : 1h 55mn
Overall bit rate : 1 074 Kbps
Writing application : VirtualDubMod 1.5.10.2 (build 2540/release)
Writing library : VirtualDubMod build 2540/release
Video
ID : 0
Format : MPEG-4 Visual
Format profile : Advanced Simple@L5
Format settings, BVOP : Yes
Format settings, QPel : No
Format settings, GMC : No warppoints
Format settings, Matrix : Default (H.263)
Muxing mode : Packed bitstream
Codec ID : XVID
Codec ID/Hint : XviD
Duration : 1h 31mn
Bit rate : 939 Kbps
Width : 640 pixels
Height : 272 pixels
Display aspect ratio : 2.35:1
Frame rate : 25.000 fps
Color space : YUV
Chroma subsampling : 4:2:0
Bit depth : 8 bits
Scan type : Progressive
Bits/(Pixel*Frame) : 0.216
Stream size : 612 MiB (87%)
Writing library : XviD 64
Audio
ID : 1
Format : MPEG Audio
Format version : Version 1
Format profile : Layer 3
Mode : Joint stereo
Mode extension : MS Stereo
Codec ID : 55
Codec ID/Hint : MP3
Duration : 1h 31mn
Bit rate mode : Variable
Bit rate : 128 Kbps
Channel(s) : 2 channels
Sampling rate : 48.0 KHz
Stream size : 79.9 MiB (11%)
Alignment : Aligned on interleaves
Interleave, duration : 24 ms (0.60 video frame)
Interleave, preload duration : 498 ms
Writing library : LAME3.98r
Encoding settings : -m j -V 4 -q 2 -lowpass 17 --abr 128 
FileSize
Cover.jpg64.06 Kb
exvid-lawless - sample.mkv12.47 Mb
exvid-lawless.nfo7.21 Kb
Lawless 2012 DVDRip XviD-EXViD.rar700.61 Mb

Trackers not found

It's removed by the request of copyright owner, but we have tons of cool stuff like this:

Search for full movies Lawless 2012 bonus47m ita eng sub ita MIRCrew, related to Lawless 2012 bonus47m ita eng sub ita MIRCrew