Download The Perks of Being a Wallflower 2012 DVDRip x264 torrent

The Perks of Being a Wallflower 2012 DVDRip x264 torrent

Total size: 681.44 Mb Seeds 4 Leechs 0
VideoID                                       : 0Format profile                           : Advanced Simple@L5Format settings, BVOP                    : 2Format settings, QPel                    : NoFormat settings, GMC                     : No warppointsFormat settings, Matrix                  : Default (H.263)Codec ID                                 : XVIDCodec ID/Hint                            : XviDDuration                                 : 1h 42mnBit rate                                 : 819 KbpsWidth                                    : 624 pixelsHeight                                   : 352 pixelsDisplay aspect ratio                     : 16:9Frame rate                               : 25.000 fpsColor space                              : YUVChroma subsampling                       : 4:2:0Bit depth                                : 8 bitsScan type                                : ProgressiveCompression mode                         : LossyBits/(Pixel*Frame)                       : 0.149Stream size                              : 600 MiB (85%)Writing library                          : XviD 64AudioID                                       : 1Format                                   : MPEG AudioFormat version                           : Version 1Format profile                           : Layer 3Mode                                     : Joint stereoMode extension                           : MS StereoCodec ID                                 : 55Codec ID/Hint                            : MP3Duration                                 : 1h 42mnBit rate mode                            : VariableBit rate                                 : 128 KbpsChannel(s)                               : 2 channelsSampling rate                            : 48.0 KHzCompression mode                         : LossyStream size                              : 92.9 MiB (13%)Alignment                                : Aligned on interleavesInterleave, duration                     : 24 ms (0.60 video frame)Interleave, preload duration             : 127 msWriting library                          : LAME3.98.4
FileSize
The Perks of Being a Wallflower 2012 DVDRip x264/subtitles/English/subtitles.srt46.43 Kb
The Perks of Being a Wallflower 2012 DVDRip x264/subtitles/NL/subtitles.srt69.51 Kb
The Perks of Being a Wallflower 2012 DVDRip x264/subtitles/Polish/subtitles.srt31.13 Kb
The Perks of Being a Wallflower 2012 DVDRip x264/The Perks of Being a Wallflower.wmv681.29 Mb
The Perks of Being a Wallflower 2012 DVDRip x264/info.nfo4.96 Kb
The Perks of Being a Wallflower 2012 DVDRip x264/Readme.txt683.00 b
The Perks of Being a Wallflower 2012 DVDRip x264/Torrent downloaded from Extratorrent.com.txt119.00 b
The Perks of Being a Wallflower 2012 DVDRip x264/Torrent downloaded from AhaShare.com.txt59.00 b
The Perks of Being a Wallflower 2012 DVDRip x264/Torrent downloaded from Demonoid.me.txt46.00 b
The Perks of Being a Wallflower 2012 DVDRip x264/Torrent downloaded from silvertorrent.org.txt41.00 b
The Perks of Being a Wallflower 2012 DVDRip x264/Torrent Downloaded From BTScene.eu.txt34.00 b
The Perks of Being a Wallflower 2012 DVDRip x264/Torrent downloaded from Rarbg.com.txt33.00 b
The Perks of Being a Wallflower 2012 DVDRip x264/Torrent downloaded from h33t.com.txt32.00 b
The Perks of Being a Wallflower 2012 DVDRip x264/Torrent downloaded from KAT.ph.txt30.00 b
The Perks of Being a Wallflower 2012 DVDRip x264/tracked_by_h33t_com.txt.txt23.00 b
TrackerSeedsLeechsDownloaded
udp://tracker.openbittorrent.com:80/scrape105
udp://tracker.publicbt.com:80/scrape208
udp://tracker.istole.it:6969/scrape1010
http://istole.h1x.com/tracker/scrape.php000
http://tracker.istole.it/scrape000
http://tracker.thepiratebay.org/scrape000
http://tracker.torrent.to:2710/scrape000
http://pow7.com/scrape000
http://t1.pow7.com/scrape000
http://10.rarbg.com/scrape000
http://tracker.token.ro/scrape000
http://tracker.torrentbay.to:6969/scrape000
http://9.rarbg.com:2710/scrape000
Report this torrent
We will carefully monitor this report and react whenever possible.
Thanks for helping us in filtering out bad content and improving TorrentReactor for every other visitor!
Please login or register to be able to report torrents.

Your comment
Please Login or register to be able to add comments.
All comments

No one has added a comment yet. Be the first one.

Related torrents
The Perks of Being a Wallflower 2012 DVDRip x264, related to The Perks of Being a Wallflower 2012 DVDRip x264