Download The Bourne Legacy 2012 DVDRiP XViD SML torrent

The Bourne Legacy 2012 DVDRiP XViD SML torrent

Total size: 689.15 Mb Seeds 0 Leechs 0
Frame rate                       : 23.067 fps
Original frame rate              : 23.976 fps
Color space                      : YUV
Chroma subsampling               : 4:2:0
Bit depth                        : 8 bits
Scan type                        : Progressive
Compression mode                 : Lossy
Bits/(Pixel*Frame)               : 0.254
Stream size                      : 599 MiB (91%)
Writing library                  : XviD 64

Audio
ID                               : 1
Format                           : MPEG Audio
Format version                   : Version 1
Format profile                   : Layer 3
Mode                             : Joint stereo
Mode extension                   : MS Stereo
Codec ID                         : 55
Codec ID/Hint                    : MP3
Duration                         : 1h 42mn
Bit rate mode                    : Constant
Bit rate                         : 128 Kbps
Channel(s)                       : 2 channels
Sampling rate                    : 44.1 KHz
Compression mode                 : Lossy
Stream size                      : 93.7 MiB (9%)
Alignment                        : Split accross interleaves
Interleave, duration             : 43 ms (1.00 video frame)
Interleave, preload duration     : 500 ms
FileSize
The Bourne Legacy.2012.DVDRiP.XViD-SML/The Bourne Legacy.2012.DVDRiP.XViD-SML.wmv689.08 Mb
The Bourne Legacy.2012.DVDRiP.XViD-SML/Subtitle.srt64.77 Kb
The Bourne Legacy.2012.DVDRiP.XViD-SML/info.nfo6.26 Kb
The Bourne Legacy.2012.DVDRiP.XViD-SML/Readme.txt293.00 b
TrackerSeedsLeechsDownloaded
udp://tracker.istole.it:6969/scrape000
http://tracker.thepiratebay.org/scrape000
http://pow7.com/scrape000
http://t1.pow7.com/scrape000
http://istole.h1x.com/tracker/scrape.php000
http://10.rarbg.com/scrape000
http://tracker.token.ro/scrape000
http://tracker.istole.it/scrape000
http://tracker.torrent.to:2710/scrape000
http://tracker.torrentbay.to:6969/scrape000
http://9.rarbg.com:2710/scrape000
Report this torrent
We will carefully monitor this report and react whenever possible.
Thanks for helping us in filtering out bad content and improving TorrentReactor for every other visitor!
Please login or register to be able to report torrents.

Your comment

Please Login or register to be able to add comments.

All comments

No one has added a comment yet. Be the first one.

Related torrents

The Bourne Legacy 2012 DVDRiP XViD SML, related to The Bourne Legacy 2012 DVDRiP XViD SML