The Expendables 2 2012 R5 DVDRip XviD 4PlayHD

The Expendables 2 2012 R5 DVDRip XviD 4PlayHD

Total size: 908.99 Mb
Removed by the request of copyright owner

The Expendables 2 (2012) R5 DVDRip XviD 4PlayHD.torrent
Format                                   : AVI
Format/Info                              : Audio Video Interleave
Format profile                           : OpenDML
Format settings                          : rec
File size                                : 908.99 MB
Duration                                 : 103 min
Overall bit rate                         : 1 791 Kbps
Writing application                      : VirtualDubMod 1.5.10.2 (build 2542/release)
Writing library                          : VirtualDubMod build 2542/release
Original source form                     : MAX TORRENTZ
Copyright                                : SIGISMUNT

Video
ID                                       : 0
Format                                   : MPEG-4 Visual
Format profile                           : Advanced Simple@L5
Format settings, BVOP                    : 2
Format settings, QPel                    : No
Format settings, GMC                     : No warppoints
Format settings, Matrix                  : Default (MPEG)
Codec ID                                 : XVID
Codec ID/Hint                            : XviD
Duration                                 : 103 min
Bit rate                                 : 1 402 Kbps
Width                                    : 720 pixels
Height                                   : 384 pixels
Display aspect ratio                     : 1.85:1
Frame rate                               : 23.976 fps
Color space                              : YUV
Chroma subsampling                       : 4:2:0
Bit depth                                : 8 bits
Scan type                                : Progressive
Compression mode                         : Lossy
Bits/(Pixel*Frame)                       : 0.211
Stream size                              : 1.04 GiB (78%)

Audio
ID                                       : 1
Format                                   : AC-3
Format/Info                              : Audio Coding 3
Mode extension                           : CM (complete main)
Format settings, Endianness              : Big
Codec ID                                 : 2000
Duration                                 : 103 min
Bit rate mode                            : Constant
Bit rate                                 : 384 Kbps
Channel(s)                               : 6 channels
Channel positions                        : Front: L C R, Side: L R, LFE
Sampling rate                            : 48.0 KHz
Bit depth                                : 16 bits
Compression mode                         : Lossy
Stream size                              : 291 MiB (21%)
Alignment                                : Aligned on interleaves
Interleave, duration                     : 64 ms (1.53 video frames)
Interleave, preload duration             : 192 ms
FileSize
The Expendables 2 (2012) R5 DVDRip XviD 4PlayHD/MOVIE.nfo4.74 Kb
The Expendables 2 (2012) R5 DVDRip XviD 4PlayHD/Subs[ENG].srt133.49 Kb
The Expendables 2 (2012) R5 DVDRip XviD 4PlayHD/The Expendables 2 (2012) R5 DVDRip XviD 4PlayHD.avi908.86 Mb
The Expendables 2 (2012) R5 DVDRip XviD 4PlayHD/Torrent downloaded from Rarbg.com.txt22.00 b
The Expendables 2 (2012) R5 DVDRip XviD 4PlayHD/Torrent downloaded from www.KAT.ph.txt41.00 b
The Expendables 2 (2012) R5 DVDRip XviD 4PlayHD/Torrent_downloaded_from_Extratorrent_Com.txt42.00 b
TrackerSeedsLeechsDownloaded
http://inferno.demonoid.me:3414/scrape000
http://000
http://tracker.yify-torrents.com/scrape000
http://tracker.1337x.org/scrape000
http://exodus.desync.com:6969/scrape000
http://tracker.openbittorrent.com/scrape000
http://retracker.hotplug.ru:2710/scrape000
http://fr33dom.h33t.com:3310/scrape000
http://tracker.ccc.de/scrape000
http://tracker.publicbt.com/scrape000
http://tracker.istole.it/scrape000
http://tracker.etree.org:6969/scrape000
http://11.rarbg.com/scrape000
http://scrape.torrentsmd.com:6969/scrape000
http://tracker.ipv6tracker.org/scrape000
http://tracker.publicbt.org/scrape000
http://ipv6.tracker.harry.lu/scrape000
http://tracker.token.ro/scrape000
http://t1.pow7.com/scrape000
http://luckybittorrent.com:2710/scrape000
http://a.tv.tracker.prq.to/scrape000
http://tracker.prq.to:6969/scrape000
http://tracker.ilibr.org:6969/scrape000
http://10.rarbg.com/scrape000
http://10.rarbg.com/scrape 000
http://gemini.tracker.prq.to/scrape000
http://tracker.jamendo.com/scrape000
http://pow7.com/scrape000
http://tracker.pow7.com/scrape000
http://t2.pow7.com/scrape000
http://tracker.prq.to/scrape000
http://tracker.ex.ua/scrape217
http://exodus.desync.com/scrape000
http://9.rarbg.com:2710/scrape000
http://exodus.desync.com/scrape1000
http://tracker.blazing.de/scrape000
http://tracker.ilibr.org/scrape000
http://tracker.csze.com/scrape000
http://bt.rghost.net/scrape000
http://ipv4.tracker.harry.lu/scrape000
http://tracker.ccc.de:80000
Search for full movies The Expendables 2 2012 BRRip 720p English 5 1 E Subs x264 RickyKT SilverRG, related to The Expendables 2 2012 BRRip 720p English 5 1 E Subs x264 RickyKT SilverRG