The Dark Knight Rises 2012 DVDRip XviD DoNE

The Dark Knight Rises 2012 DVDRip XviD DoNE

Total size: 1,006.99 Mb Seeds 0 Leechs 0
The Dark Knight Rises (2012) DVDRip.XviD-DoNE.torrentFormat                                   : AVIFormat/Info                              : Audio Video InterleaveFormat profile                           : OpenDMLFormat settings                          : recFile size                                : 1.06 GiBDuration                                 : 165 minOverall bit rate                         : 1 791 KbpsWriting application                      : VirtualDubMod 1.5.10.2 (build 2542/release)Writing library                          : VirtualDubMod build 2542/releaseOriginal source form                     : MAX TORRENTZCopyright                                : SIGISMUNTVideoID                                       : 0Format                                   : MPEG-4 VisualFormat profile                           : Advanced Simple@L5Format settings, BVOP                    : 2Format settings, QPel                    : NoFormat settings, GMC                     : No warppointsFormat settings, Matrix                  : Default (MPEG)Codec ID                                 : XVIDCodec ID/Hint                            : XviDDuration                                 : 165 minBit rate                                 : 1 402 KbpsWidth                                    : 720 pixelsHeight                                   : 384 pixelsDisplay aspect ratio                     : 1.85:1Frame rate                               : 23.976 fpsColor space                              : YUVChroma subsampling                       : 4:2:0Bit depth                                : 8 bitsScan type                                : ProgressiveCompression mode                         : LossyBits/(Pixel*Frame)                       : 0.211Stream size                              : 1.04 GiB (78%)AudioID                                       : 1Format                                   : AC-3Format/Info                              : Audio Coding 3Mode extension                           : CM (complete main)Format settings, Endianness              : BigCodec ID                                 : 2000Duration                                 : 165 minBit rate mode                            : ConstantBit rate                                 : 384 KbpsChannel(s)                               : 6 channelsChannel positions                        : Front: L C R, Side: L R, LFESampling rate                            : 48.0 KHzBit depth                                : 16 bitsCompression mode                         : LossyStream size                              : 291 MiB (21%)Alignment                                : Aligned on interleavesInterleave, duration                     : 64 ms (1.53 video frames)Interleave, preload duration             : 192 msPlot:Eight years on, a new terrorist leader, Bane, overwhelms Gotham's finest, and the Dark Knight resurfaces to protect a city that has branded him an enemy.
FileSize
The Dark Knight Rises (2012) DVDRip.XviD-DoNE/MOVIE.nfo4.74 Kb
The Dark Knight Rises (2012) DVDRip.XviD-DoNE/Subs[ENG].srt133.49 Kb
The Dark Knight Rises (2012) DVDRip.XviD-DoNE/The Dark Knight Rises (2012) DVDRip.XviD-DoNE.avi1,006.86 Mb
The Dark Knight Rises (2012) DVDRip.XviD-DoNE/Torrent downloaded from Rarbg.com.txt22.00 b
The Dark Knight Rises (2012) DVDRip.XviD-DoNE/Torrent downloaded from www.KAT.ph.txt41.00 b
The Dark Knight Rises (2012) DVDRip.XviD-DoNE/Torrent_downloaded_from_Extratorrent_Com.txt42.00 b
TrackerSeedsLeechsDownloaded
udp://tracker.yify-torrents.com/scrape000
udp://exodus.desync.com:6969/scrape000
udp://tracker.openbittorrent.com:80/scrape000
udp://tracker.istole.it:80/scrape000
udp://9.rarbg.com:2710/scrape000
udp://10.rarbg.com/scrape000
udp://11.rarbg.com/scrape000
http://inferno.demonoid.me:3414/scrape000
http://exodus.desync.com:6969/scrape000
http://retracker.hotplug.ru:2710/scrape000
http://tracker.yify-torrents.com/scrape000
http://fr33dom.h33t.com:3310/scrape000
http://tracker.publicbt.com:80/scrape000
http://tracker.etree.org:6969/scrape000
http://a.tv.tracker.prq.to/scrape000
http://exodus.desync.com/scrape000
http://tracker.prq.to:6969/scrape000
http://tracker.ilibr.org:6969/scrape000
http://exodus.desync.com/scrape1000
http://ipv4.tracker.harry.lu/scrape000
http://10.rarbg.com/scrape 000
http://gemini.tracker.prq.to/scrape000
http://scrape.torrentsmd.com:6969/scrape000
http://tracker.jamendo.com/scrape000
http://tracker.ipv6tracker.org/scrape000
http://pow7.com:80/scrape000
http://bt.rghost.net:80/scrape000
http://tracker.blazing.de:80/scrape000
http://tracker.publicbt.org:80/scrape000
http://ipv6.tracker.harry.lu/scrape000
http://tracker.ilibr.org:80/scrape000
http://luckybittorrent.com:2710/scrape000
http://tracker.csze.com:80/scrape000
http://tracker.ccc.de/scrape000
http://tracker.ex.ua/scrape000
http://tracker.pow7.com:80/scrape000
http://t2.pow7.com/scrape000
http://tracker.prq.to:80/scrape000
http://tracker.token.ro:80/scrape000
http://t1.pow7.com:80/scrape000
http://10.rarbg.com:80/scrape000
Report this torrent
We will carefully monitor this report and react whenever possible.
Thanks for helping us in filtering out bad content and improving TorrentReactor for every other visitor!
Please login or register to be able to report torrents.

Your comment

Please Login or register to be able to add comments.

All comments

No one has added a comment yet. Be the first one.

Related movies

Search for full movies The Dark Knight Rises 2012 DVDRip XviD DoNE, related to The Dark Knight Rises 2012 DVDRip XviD DoNE