Rebelle 2012 FRENCH DVDRip XviD 3PsiLoN

Rebelle 2012 FRENCH DVDRip XviD 3PsiLoN

Total size: 704.24 Mb Seeds 0 Leechs 0
[IMG]http://i.imgur.com/Gpo3O.jpg[/IMG]
 
TITLE: 

Rebelle (2012) FRENCH DVDRip XviD - 3PsiLoN

IMDB: 

http://www.imdb.com/title/tt1217209/


STATS:

Video
ID                               : 0
Format                           : MPEG-4 Visual
Format profile                   : Advanced Simple@L5
Format settings, BVOP            : 2
Format settings, QPel            : No
Format settings, GMC             : No warppoints
Format settings, Matrix          : Default (MPEG)
Muxing mode                      : Packed bitstream
Codec ID                         : XVID
Codec ID/Hint                    : XviD
Duration                         : 1h 40mn
Bit rate                         : 986 Kbps
Width                            : 720 pixels
Height                           : 320 pixels
Display aspect ratio             : 2.25:1
Frame rate                       : 29.970 fps
Color space                      : YUV
Chroma subsampling               : 4:2:0
Bit depth                        : 8 bits
Scan type                        : Progressive
Compression mode                 : Lossy
Bits/(Pixel*Frame)               : 0.243
Stream size                      : 700 MiB (92%)
Writing library                  : XviD 64

Audio

Format                           : MPEG Audio
Format version                   : Version 1
Format profile                   : Layer 3
Mode                             : Joint stereo
Mode extension                   : MS Stereo
Codec ID                         : 55
Codec ID/Hint                    : MP3
Duration                         : 1h 40mn
Bit rate mode                    : Constant
Bit rate                         : 128 Kbps
Channel(s)                       : 2 channels
Sampling rate                    : 48.0 KHz
Compression mode                 : Lossy
Stream size                      : 51 MiB (7%)
Alignment                        : Split accross interleaves
Interleave, duration             : 33 ms (1.00 video frame)
Interleave, preload duration     : 500 ms


SCREENS:

[IMG]http://i.imgur.com/rUvzg.png[/IMG]
[IMG]http://i.imgur.com/JRv0R.png[/IMG]
[IMG]http://i.imgur.com/3l6Qf.jpg[/IMG]
......................




FileSize
Rebelle (2012) FRENCH DVDRip XviD - 3PsiLoN/cover.jpg72.79 Kb
Rebelle (2012) FRENCH DVDRip XviD - 3PsiLoN/Rebelle (2012) FRENCH DVDRip XviD - 3PsiLoN.nfo2.18 Kb
Rebelle (2012) FRENCH DVDRip XviD - 3PsiLoN/Rebelle (2012) FRENCH DVDRip XviD - 3PsiLoN/Rebelle (2012) FRENCH DVDRip XviD - 3PsiLoN.rar702.78 Mb
Rebelle (2012) FRENCH DVDRip XviD - 3PsiLoN/screenshots01.png635.16 Kb
Rebelle (2012) FRENCH DVDRip XviD - 3PsiLoN/screenshots02.png718.68 Kb
Rebelle (2012) FRENCH DVDRip XviD - 3PsiLoN/screenshots03.jpg65.41 Kb
TrackerSeedsLeechsDownloaded
udp://tracker.openbittorrent.com:80/scrape000
udp://tracker.publicbt.com:80/scrape000
Report this torrent
We will carefully monitor this report and react whenever possible.
Thanks for helping us in filtering out bad content and improving TorrentReactor for every other visitor!
Please login or register to be able to report torrents.

Your comment

Please Login or register to be able to add comments.

All comments

No one has added a comment yet. Be the first one.

Related movies

Search for full movies Rebelle 2012 FRENCH DVDRip XviD 3PsiLoN, related to Rebelle 2012 FRENCH DVDRip XviD 3PsiLoN