Resident Evil Retribution 2012 Hindi DVDScr XviD E SuB xRG

Resident Evil Retribution 2012 Hindi DVDScr XviD E SuB xRG

Total size: 989.99 Mb
Removed by the request of copyright owner

Resident Evil Retribution (2012) Hindi DVDScr XviD E-SuB xRGFormat                                   : AVIFormat/Info                              : Audio Video InterleaveFormat profile                           : OpenDMLFormat settings                          : recFile size                                : 989 GiBDuration                                 : 95 min Overall bit rate                         : 1 293 KbpsWriting application                      : VirtualDubMod 1.5.10.2 (build 2542/release)Writing library                          : VirtualDubMod build 2542/releaseOriginal source form                     : MAX TORRENTZCopyright                                : SIGISMUNTVideoID                                       : 0Format                                   : MPEG-4 VisualFormat profile                           : Advanced Simple@L5Format settings, BVOP                    : 2Format settings, QPel                    : NoFormat settings, GMC                     : No warppointsFormat settings, Matrix                  : Default (H.263)Codec ID                                 : XVIDCodec ID/Hint                            : XviDDuration                                 : 95 min Bit rate                                 : 904 KbpsWidth                                    : 624 pixelsHeight                                   : 256 pixelsDisplay aspect ratio                     : 2.40:1Frame rate                               : 23.976 fpsColor space                              : YUVChroma subsampling                       : 4:2:0Bit depth                                : 8 bitsScan type                                : ProgressiveCompression mode                         : LossyBits/(Pixel*Frame)                       : 0.236Stream size                              : 931 MiB (70%)Writing library                          : XviD 1.2.1 (UTC 2008-12-04)AudioID                                       : 1Format                                   : AC-3Format/Info                              : Audio Coding 3Mode extension                           : CM (complete main)Format settings, Endianness              : BigCodec ID                                 : 2000Duration                                 : 95 min Bit rate mode                            : ConstantBit rate                                 : 384 KbpsChannel(s)                               : 6 channelsChannel positions                        : Front: L C R, Side: L R, LFESampling rate                            : 48.0 KHzBit depth                                : 16 bitsCompression mode                         : LossyStream size                              : 396 MiB (30%)Alignment                                : Aligned on interleavesInterleave, duration                     : 64 ms (1.53 video frames)Interleave, preload duration             : 192 ms
FileSize
Resident Evil Retribution (2012) Hindi DVDScr XviD E-SuB xRG/MOVIE.nfo4.74 Kb
Resident Evil Retribution (2012) Hindi DVDScr XviD E-SuB xRG/Resident Evil Retribution (2012) Hindi DVDScr XviD E-SuB xRG.avi989.86 Mb
Resident Evil Retribution (2012) Hindi DVDScr XviD E-SuB xRG/Subs[ENG].srt133.49 Kb
Resident Evil Retribution (2012) Hindi DVDScr XviD E-SuB xRG/Torrent downloaded from Rarbg.com.txt22.00 b
Resident Evil Retribution (2012) Hindi DVDScr XviD E-SuB xRG/Torrent downloaded from www.KAT.ph.txt41.00 b
Resident Evil Retribution (2012) Hindi DVDScr XviD E-SuB xRG/Torrent_downloaded_from_Extratorrent_Com.txt42.00 b
TrackerSeedsLeechsDownloaded
http://luckybittorrent.com:2710/scrape000
http://ipv6.tracker.harry.lu/scrape000
http://tracker.publicbt.org/scrape000
http://scrape.torrentsmd.com:6969/scrape000
http://retracker.hotplug.ru:2710/scrape000
http://000
http://inferno.demonoid.me:3414/scrape000
http://tracker.istole.it/scrape000
http://t1.pow7.com/scrape000
http://tracker.prq.to/scrape000
http://tracker.ilibr.org/scrape000
http://t2.pow7.com/scrape000
http://tracker.pow7.com/scrape000
http://tracker.jamendo.com/scrape000
http://10.rarbg.com/scrape 000
http://tracker.publicbt.com/scrape000
http://tracker.token.ro/scrape000
http://pow7.com/scrape000
http://gemini.tracker.prq.to/scrape000
http://10.rarbg.com/scrape000
http://tracker.ilibr.org:6969/scrape000
http://tracker.prq.to:6969/scrape000
http://a.tv.tracker.prq.to/scrape000
http://11.rarbg.com/scrape000
http://tracker.openbittorrent.com/scrape000
http://fr33dom.h33t.com:3310/scrape100
http://bt.rghost.net/scrape000
http://ipv4.tracker.harry.lu/scrape000
http://tracker.ccc.de:80000
http://tracker.ipv6tracker.org/scrape000
http://tracker.ex.ua/scrape100
http://tracker.ccc.de/scrape000
http://exodus.desync.com/scrape000
http://exodus.desync.com/scrape1000
http://exodus.desync.com:6969/scrape000
http://tracker.etree.org:6969/scrape000
http://tracker.csze.com/scrape000
http://tracker.blazing.de/scrape000
http://9.rarbg.com:2710/scrape000
http://tracker.1337x.org/scrape000
http://tracker.yify-torrents.com/scrape000
Search for full movies Resident Evil Retribution 2012 Hindi DVDScr XviD E SuB xRG, related to Resident Evil Retribution 2012 Hindi DVDScr XviD E SuB xRG