Download Ilegales Ft. El Potro Alvarez - Ayantame (h264mp4) torrent

Ilegales Ft. El Potro Alvarez - Ayantame (h264mp4) torrent

Total size: 54.00 Mb Seeds 1 Leechs 3
General
Format : MPEG-4
Format profile : Base Media
Codec ID : isom
File size : 54.0 MiB
Duration : 3mn 32s
Overall bit rate mode : Variable
Overall bit rate : 2 128 Kbps
Encoded date : UTC 2012-08-29 16:15:34
Tagged date : UTC 2012-08-29 16:15:34
Video
ID : 1
Format : AVC
Format/Info : Advanced Video Codec
Format profile : High@L3.0
Format settings, CABAC : Yes
Format settings, ReFrames : 2 frames
Codec ID : avc1
Codec ID/Info : Advanced Video Coding
Duration : 3mn 32s
Bit rate : 1 919 Kbps
Maximum bit rate : 4 952 Kbps
Width : 720 pixels
Height : 480 pixels
Display aspect ratio : 16:9
Original display aspect ratio : 16:9
Frame rate mode : Constant
Frame rate : 23.976 fps
Standard : NTSC
Color space : YUV
Chroma subsampling : 4:2:0
Bit depth : 8 bits
Scan type : Progressive
Bits/(Pixel*Frame) : 0.232
Stream size : 47.8 MiB (88%)
Audio
ID : 2
Format : MPEG Audio
Format version : Version 1
Format profile : Layer 3
Mode : Joint stereo
Mode extension : MS Stereo
Codec ID : 6B
Duration : 3mn 32s
Bit rate mode : Variable
Bit rate : 239 Kbps
Maximum bit rate : 254 Kbps
Channel(s) : 2 channels
Sampling rate : 44.1 KHz
Compression mode : Lossy
Delay relative to video : -833ms
Stream size : 6.06 MiB (11%) 
FileSize
IlegalesFt.ElPotroAlvarez-Ayantame-descargar-videos.org.mp454.00 Mb
TrackerSeedsLeechsDownloaded
udp://tracker.openbittorrent.com:80/scrape016
udp://tracker.publicbt.com:80/scrape016
udp://tracker.istole.it:6969/scrape1110
http://www.torrent-downloads.to:2710/scrape000
Report this torrent
We will carefully monitor this report and react whenever possible.
Thanks for helping us in filtering out bad content and improving TorrentReactor for every other visitor!
Please login or register to be able to report torrents.

Your comment
Please Login or register to be able to add comments.
All comments

No one has added a comment yet. Be the first one.

Related torrents
Ilegales Ft. El Potro Alvarez - Ayantame (h264mp4), related to Ilegales Ft. El Potro Alvarez - Ayantame (h264mp4)