Fake torrent

The Expendables 2 2012 BRRip XviD-3LT0N torrent

Total size: 1,010.31 Mb Seeds 0 Leechs 1
The Expendables 2 2012 BRRip XviD-3LT0N
General
Complete name : The Expendables 2 2012 BRRip XviD-3LT0N
Format profile : Base Media
Codec ID : isom
File size : 1.39 GiB
Duration : 1h 49mn
Overall bit rate mode : Variable
Overall bit rate : 1 822 Kbps
Encoded date : UTC 2012-08-08 17:44:03

Video
ID : 1
Format : AVC
Format/Info : Advanced Video Codec
Format profile : [email protected]
Format settings, CABAC : Yes
Format settings, ReFrames : 3 frames
Codec ID : avc1
Codec ID/Info : Advanced Video Coding
Duration : 1h 49mn
Bit rate mode : Variable
Bit rate : 1 701 Kbps
Maximum bit rate : 40.0 Mbps
Width : 720 pixels
Height : 338 pixels
Display aspect ratio : 2.130
Frame rate mode : Constant
Frame rate : 25.000 fps
Color space : YUV
Chroma subsampling : 4:2:0
Bit depth : 8 bits
Scan type : Progressive
Bits/(Pixel*Frame) : 0.280
Stream size : 1.30 GiB (93%)
Writing library : x264 core 125 r2208 d9d2288

Audio
ID : 2
Format : AAC
Format/Info : Advanced Audio Codec
Format profile : LC
Codec ID : 40
Duration : 1h 49mn
Bit rate mode : Variable
Bit rate : 117 Kbps
Maximum bit rate : 143 Kbps
Channel(s) : 2 channels
Channel positions : Front: L R
Sampling rate : 44.1 KHz
Compression mode : Lossy
Stream size : 91.4 MiB (6%)
Language : English
Encoded date : UTC 2012-08-08 17:45:41

Sources : Video - SainT VOBS - Thanks!
: Audio - The Tooth Fairy - Thanks!

Storyline
Mr. Church reunites the Expendables for what should be an easy paycheck, but when one of their men is murdered on the job, their quest for revenge puts them deep in enemy territory and up against an unexpected threat.
FileSize
The Expendables 2 2012 BRRip XviD-3LT0N/ExtraTorrent Sample1.45 Mb
The Expendables 2 2012 BRRip XviD-3LT0N/MOVIE.nfo4.74 Kb
The Expendables 2 2012 BRRip XviD-3LT0N/The Expendables 2 2012 BRRip XviD-3LT0N.avi1,008.86 Mb
The Expendables 2 2012 BRRip XviD-3LT0N/Torrent downloaded from www.KAT.ph.txt41.00 b
The Expendables 2 2012 BRRip XviD-3LT0N/Torrent_downloaded_from_Extratorrent_Com.txt42.00 b
TrackerSeedsLeechsDownloaded
udp://tracker.istole.it:80/scrape000
udp://tracker.openbittorrent.com:80/scrape000
udp://tracker.publicbt.com:80/scrape000
http://fr33dom.h33t.com:3310/scrape000
http://www.h33t.com:3310/scrape000
http://bigtorrent.org:2710/scrape000
http://tracker.coppersurfer.tk:6969/scrape010
http://inferno.demonoid.com:3389/scrape000
http://exodus.desync.com/scrape000
http://bttrack.9you.com/:8080/scrape000
http://exodus.desync.com:6969/scrape000
http://9.rarbg.com:2710/scrape000
http://tracker.torrentbay.to:6969/scrape000
http://pow7.com/scrape000
http://10.rarbg.com/scrape000
Report this torrent
We will carefully monitor this report and react whenever possible.
Thanks for helping us in filtering out bad content and improving TorrentReactor for every other visitor!
Please login or register to be able to report torrents.

Your comment
Please Login or register to be able to add comments.
All comments

No one has added a comment yet. Be the first one.

Related torrents
The Expendables 2 2012 BRRip XviD-3LT0N, related to The Expendables 2 2012 BRRip XviD-3LT0N