2 Days in New York 2012 DVDRip XviD LEGi0N

2 Days in New York 2012 DVDRip XviD LEGi0N

Total size: 702.18 Mb
Removed by the request of copyright owner

2 Days in New York 2012 DVDRip XviD - LEGi0N

[IMG]http://i.imgur.com/Y86IS.jpg[/IMG] 

IMDB: 

http://www.imdb.com/title/tt1602472/


STATS:

Video
ID                               : 0
Format                           : MPEG-4 Visual
Format profile                   : Advanced Simple@L5
Format settings, BVOP            : 2
Format settings, QPel            : No
Format settings, GMC             : No warppoints
Format settings, Matrix          : Default (MPEG)
Muxing mode                      : Packed bitstream
Codec ID                         : XVID
Codec ID/Hint                    : XviD
Duration                         : 1h 36mn
Bit rate                         : 986 Kbps
Width                            : 720 pixels
Height                           : 320 pixels
Display aspect ratio             : 2.25:1
Frame rate                       : 29.970 fps
Color space                      : YUV
Chroma subsampling               : 4:2:0
Bit depth                        : 8 bits
Scan type                        : Progressive
Compression mode                 : Lossy
Bits/(Pixel*Frame)               : 0.243
Stream size                      : 646 MiB (92%)
Writing library                  : XviD 64

Audio

Format                           : MPEG Audio
Format version                   : Version 1
Format profile                   : Layer 3
Mode                             : Joint stereo
Mode extension                   : MS Stereo
Codec ID                         : 55
Codec ID/Hint                    : MP3
Duration                         : 1h 36mn
Bit rate mode                    : Constant
Bit rate                         : 128 Kbps
Channel(s)                       : 2 channels
Sampling rate                    : 48.0 KHz
Compression mode                 : Lossy
Stream size                      : 56 MiB (7%)
Alignment                        : Split accross interleaves
Interleave, duration             : 33 ms (1.00 video frame)
Interleave, preload duration     : 500 ms


SCREENS:

[IMG]http://i.imgur.com/F5Agb.jpg[/IMG]
[IMG]http://i.imgur.com/XNPbs.jpg[/IMG]
[IMG]http://i.imgur.com/zGPwS.jpg[/IMG]




FileSize
2 Days in New York 2012 DVDRip XviD - LEGi0N/2 Days in New York 2012 DVDRip XviD - LEGi0N.nfo2.14 Kb
2 Days in New York 2012 DVDRip XviD - LEGi0N/2 Days in New York 2012 DVDRip XviD - LEGi0N.rar702.00 Mb
2 Days in New York 2012 DVDRip XviD - LEGi0N/Screenshot01.jpg71.26 Kb
2 Days in New York 2012 DVDRip XviD - LEGi0N/Screenshot02.jpg43.74 Kb
2 Days in New York 2012 DVDRip XviD - LEGi0N/Screenshot03.jpg71.39 Kb
TrackerSeedsLeechsDownloaded
udp://tracker.openbittorrent.com:80/scrape000
udp://tracker.publicbt.com:80/scrape000
http://tracker.thepiratebay.org/scrape000
http://tracker.novalayer.org:6969/scrape000
http://luckybittorrent.com:2710/scrape000
http://tracker.torrentbox.com:2710/scrape000
http://inferno.demonoid.me:3409/scrape000
http://exodus.desync.com:6969/scrape000
http://cpleft.com:2710/scrape000
http://secure.pow7.com/scrape000
http://t1.pow7.com/scrape000
http://10.rarbg.com/scrape000
http://pow7.com/scrape000
http://tracker.zond.org/scrape000
http://tracker.torrentbay.to:6969/scrape000
http://tracker.openbittorrent.com/scrape000

It's removed by the request of copyright owner, but we have tons of cool stuff like this:

Search for full movies 2 Days in New York 2012 x264 DTS WAF, related to 2 Days in New York 2012 x264 DTS WAF