Step Up Revolution 2012 DVDRip XviD SPARKS IN Movie

Step Up Revolution 2012 DVDRip XviD SPARKS IN Movie

Total size: 1.48 Gb
Removed by the request of copyright owner

  • Category
  • Added
    on 2012-07-27 15:48:31
  • Hash
    4e35e28348affa8273c123eee805658b3f91b0a1
Step Up Revolution 2012 DVDRip XviD-SPARKS-IN-MovieFile size                                : 1.48 GiBDuration                                 : 1h 43mnOverall bit rate                         : 2 107 KbpsVideoID                                       : 0Format                                   : MPEG-4 VisualFormat profile                           : Advanced Simple@L5Format settings, BVOP                    : 2Format settings, QPel                    : NoFormat settings, GMC                     : No warppointsFormat settings, Matrix                  : Default (H.263)Codec ID                                 : XVIDCodec ID/Hint                            : XviDDuration                                 : 1h 43mnBit rate                                 : 1 651 KbpsWidth                                    : 720 pixelsHeight                                   : 304 pixelsDisplay aspect ratio                     : 2.35:1Frame rate                               : 25.000 fpsColor space                              : YUVChroma subsampling                       : 4:2:0Bit depth                                : 8 bitsScan type                                : ProgressiveCompression mode                         : LossyBits/(Pixel*Frame)                       : 0.302Stream size                              : 1.48  GiB (78%)Writing Duane Adler       : XviD 1.2.1 (UTC 2008-12-04)AudioID                                       : 1Format                                   : AC-3Format/Info                              : Audio Coding 3Mode extension                           : CM (complete main)Format settings, Endianness              : BigCodec ID                                 : 2000Duration                                 : 1h 43mnBit rate mode                            : ConstantBit rate                                 : 448 KbpsChannel(s)                               : 6 channelsChannel positions                        : Front: Sampling rate                            : 6.2 KHzBit depth                                : 16 bitsCompression mode                         : LossyStream size                              : 331 MiB (21%)Alignment                                : Aligned on interleavesInterleave, duration                     : 64 ms (1.60 video frames)Interleave, preload duration             : 192 msTitle : Step Up Revolution 2012 DVDRip XviD-SPARKS-IN-MovieGenre : Drama | Music | Romance IMDB:  http://www.imdb.com/title/tt1800741/source PAL DVDRip-XVID :-SPARKS-IN-Moviesample provided ......a cracking watch of a film Ewan is a secret service agent faced with the task of pursuing and eliminating a suicide bomber and his terrorist cell. The-plot:-Emily arrives in Miami with aspirations to become a professional dancer. She sparks with Sean, the leader of a dance crew whose neighborhood is threatened by Emily's father's development plans.
FileSize
Step Up Revolution 2012 DVDRip XviD-SPARKS-IN-Movie/Step Up Revolution 2012 DVDRip XviD-SPARKS-IN-Movie.avi1.48 Gb

Trackers not found

It's removed by the request of copyright owner, but we have tons of cool stuff like this:

Search for full series & tv shows Gabriel Iglesias Presents Stand Up Revolution S03E04 Steve Simeo, related to Gabriel Iglesias Presents Stand Up Revolution S03E04 Steve Simeo