Download Moonrise Kingdom 2012 DVDRip XviD-COCAIN-IN-Movie torrent

Fake torrent

Moonrise Kingdom 2012 DVDRip XviD-COCAIN-IN-Movie torrent

Total size: 1.83 Gb Seeds 0 Leechs 0
Moonrise Kingdom 2012 DVDRip XviD-COCAIN-IN-Movie
Moonrise Kingdom 2012 DVDRip XviD-COCAIN-IN-Movie

File size                                : 1.83 GiB
Duration                                 : 1h 43mn
Overall bit rate                         : 2 107 Kbps

Video
ID                                       : 0
Format                                   : MPEG-4 Visual
Format profile                           : Advanced Simple@L5
Format settings, BVOP                    : 2
Format settings, QPel                    : No
Format settings, GMC                     : No warppoints
Format settings, Matrix                  : Default (H.263)
Codec ID                                 : XVID
Codec ID/Hint                            : XviD
Duration                                 : 1h 43mn
Bit rate                                 : 1 651 Kbps
Width                                    : 720 pixels
Height                                   : 304 pixels
Display aspect ratio                     : 2.35:1
Frame rate                               : 25.000 fps
Color space                              : YUV
Chroma subsampling                       : 4:2:0
Bit depth                                : 8 bits
Scan type                                : Progressive
Compression mode                         : Lossy
Bits/(Pixel*Frame)                       : 0.302
Stream size                              : 1.83  GiB (78%)
Writing Wes Anderson       : XviD 1.2.1 (UTC 2008-12-04)

Audio
ID                                       : 1
Format                                   : AC-3
Format/Info                              : Audio Coding 3
Mode extension                           : CM (complete main)
Format settings, Endianness              : Big
Codec ID                                 : 2000
Duration                                 : 1h 43mn
Bit rate mode                            : Constant
Bit rate                                 : 448 Kbps
Channel(s)                               : 6 channels
Channel positions                        : Front: 
Sampling rate                            : 6.2 KHz
Bit depth                                : 16 bits
Compression mode                         : Lossy
Stream size                              : 331 MiB (21%)
Alignment                                : Aligned on interleaves
Interleave, duration                     : 64 ms (1.60 video frames)
Interleave, preload duration             : 192 ms
Title : Moonrise Kingdom 2012 DVDRip XviD-COCAIN-IN-Movie
Genre:  Comedy | Drama | Romance 
IMDB:  http://www.imdb.com/title/tt1748122/

source PAL DVDRip-XVID :-COCAIN-IN-Movie

sample provided ......a cracking watch of a film 

Ewan is a secret service agent faced with the task of pursuing and eliminating a suicide bomber and his terrorist cell. 
The-plot:-A pair of young lovers flee their New England town, which causes a local search party to fan out and find them.
FileSize
Moonrise Kingdom 2012 DVDRip XviD-COCAIN-IN-Movie/Moonrise Kingdom 2012 DVDRip XviD-COCAIN-IN-Movie.avi1.83 Gb
TrackerSeedsLeechsDownloaded
http://bigtorrent.org:2710/scrape000
http://tracker.yify-torrents.com/scrape000
http://fr33dom.h33t.com:3310/scrape000
http://retracker.hotplug.ru:2710/scrape000
http://exodus.desync.com:6969/scrape000
http://bt.careland.com.cn:6969/scrape000
http://tracker.coppersurfer.tk:6969/scrape000
Report this torrent
We will carefully monitor this report and react whenever possible.
Thanks for helping us in filtering out bad content and improving TorrentReactor for every other visitor!
Please login or register to be able to report torrents.

Your comment
Please Login or register to be able to add comments.
All comments

No one has added a comment yet. Be the first one.

Related torrents
Moonrise Kingdom 2012 DVDRip XviD-COCAIN-IN-Movie, related to Moonrise Kingdom 2012 DVDRip XviD-COCAIN-IN-Movie