Savages 2012 DVDRip~AVI torrent

Total size: 854.29 Mb Seeds 0 Leechs 0
Savages (2012)-------------------------------------------------------------------Please share....Dont hit and run...Seed it back at least once.Of course, if you want to seed it back more than once, that would be ok too :)-------------------------------------------------------------------    QUALITY:  PERFECT 10/10All details are here:Format  | AVI           Language | ENGLISH  Source  | DVD PAL       Subs     | NONEQUALITY:  PERFECT 10/10- VideoID                               : 0Format                           : MPEG-4 VisualFormat profile                   : Advanced Simple@L5Format settings, BVOP            : YesFormat settings, QPel            : NoFormat settings, GMC             : No warppointsFormat settings, Matrix          : Default (H.263)Muxing mode                      : Packed bitstreamCodec ID                         : XVIDCodec ID/Hint                    : XviDBit rate                         : 1 345 KbpsWidth                            : 720 pixelsHeight                           : 314 pixelsDisplay aspect ratio             : 2.25:1Frame rate                       : 29.970 fpsColor space                      : YUVChroma subsampling               : 4:2:0Bit depth                        : 8 bitsScan type                        : ProgressiveCompression mode                 : LossyBits/(Pixel*Frame)               : 0.198Stream size                      : 1.19 GiB (87%)Writing library                  : XviD 1.1.0 (UTC 2005-11-22)- AudioID                               : 1Format                           : AC-3Format/Info                      : Audio Coding 3Mode extension                   : CM (complete main)Codec ID                         : 2000Bit rate mode                    : ConstantBit rate                         : 192 KbpsChannel(s)                       : 2 channelsChannel positions                : Front: L RSampling rate                    : 48.0 KHzBit depth                        : 16 bitsCompression mode                 : LossyStream size                      : 175 MiB (12%)Alignment                        : Aligned on interleavesInterleave, duration             : 33 ms (1.00 video frame)Interleave, preload duration     : 512 ms    - GreetsGreets to | X | Joshua08 | IMAGiNE | PrisM | DiGiTAL iNK |Torrent Name :  Savages 2012 DVDRip AVI-----------------------------------------------------------------------------------------GENRE : Crime | Drama | ThrillerTHE Plot:-A team of explorers discover a clue to the origins of mankind on Earth, leading them on a journey to the darkest corners of the universe. There, they must fight a terrifying battle to save the future of the human race.http://www.imdb.com/title/tt1615065/____________________________________________________________________________________________
FileSize
Savages 2012.DVDRip~AVI/ExtraTorrentRG.mp41.45 Mb
Savages 2012.DVDRip~AVI/MOVIE.nfo4.74 Kb
Savages 2012.DVDRip~AVI/Sample AVI.avi2.86 Mb
Savages 2012.DVDRip~AVI/Savages 2012.DVDRip~AVI.avi849.86 Mb
Savages 2012.DVDRip~AVI/Subs[ENG].srt133.49 Kb
Savages 2012.DVDRip~AVI/Torrent downloaded from Rarbg.com.txt22.00 b
Savages 2012.DVDRip~AVI/Torrent downloaded from www.KAT.ph.txt41.00 b
Savages 2012.DVDRip~AVI/Torrent_downloaded_from_Extratorrent_Com.txt42.00 b
TrackerSeedsLeechsDownloaded
udp://tracker.publicbt.com:80/scrape000
http://www.h33t.com:3310/scrape000
http://fr33dom.h33t.com:3310/scrape000
http://tracker.ex.ua/scrape000
http://exodus.desync.com:6969/scrape000
http://tracker.torrentbay.to:6969/scrape000
Report this torrent
We will carefully monitor this report and react whenever possible.
Thanks for helping us in filtering out bad content and improving TorrentReactor for every other visitor!
Please login or register to be able to report torrents.

Your comment
Please Login or register to be able to add comments.
All comments

No one has added a comment yet. Be the first one.

Related torrents
Savages 2012 DVDRip~AVI, related to Savages 2012 DVDRip~AVI