Ted 2012 TS XViD AC3 ADTRG

Ted 2012 TS XViD AC3 ADTRG

Total size: 694.11 Mb Seeds 0 Leechs 0
Source -   Spanish  Thanks

Complete name                            :Ted 2012 TS.XViD.AC3-ADTRG
Format                                   : AVI
Format/Info                              : Audio Video Interleave
File size                                : 697 MiB
Duration                                 : 1h 22mn
Overall bit rate                         : 1 177 Kbps
Writing application                      : Lavf52.61.0
Writing library                          : VirtualDub build 34703/release

Video
ID                                       : 0
Format                                   : MPEG-4 Visual
Format profile                           : Advanced Simple@L5
Format settings, BVOP                    : 2
Format settings, QPel                    : No
Format settings, GMC                     : No warppoints
Format settings, Matrix                  : Default (H.263)
Muxing mode                              : Packed bitstream
Codec ID                                 : XVID
Codec ID/Hint                            : XviD
Duration                                 : 1h 46mn
Bit rate                                 : 1 101 Kbps
Width                                    : 640 pixels
Height                                   : 336 pixels
Display aspect ratio                     : 1.905
Frame rate                               : 29.970 fps
Color space                              : YUV
Chroma subsampling                       : 4:2:0
Bit depth                                : 8 bits
Scan type                                : Progressive
Compression mode                         : Lossy
Bits/(Pixel*Frame)                       : 0.171
Stream size                              : 647 MiB (94%)
Writing library                          : XviD 64

Audio
ID                                       : 1
Format                                   : MPEG Audio
Format version                           : Version 1
Format profile                           : Layer 3
Codec ID                                 : 55
Codec ID/Hint                            : MP3
Duration                                 : 1h 22mn
Bit rate mode                            : Constant
Bit rate                                 : 64.0 Kbps
Channel(s)                               : 2 channels
Sampling rate                            : 44.1 KHz
Compression mode                         : Lossy
Stream size                              : 37.6 MiB (5%)
Alignment                                : Split accross interleaves
Interleave, duration                     : 33 ms (1.00 video frame)
Interleave, preload duration             : 500 ms
FileSize
Ted 2012 TS.XViD.AC3-ADTRG/Ted 2012 TS.XViD.AC3-ADTRG/Ted 2012 TS.XViD.AC3-ADTRG.rar694.11 Mb
Ted 2012 TS.XViD.AC3-ADTRG/Ted 2012 TS.XViD.AC3-ADTRG/read.txt656.00 b
Ted 2012 TS.XViD.AC3-ADTRG/Ted 2012 TS.XViD.AC3-ADTRG/Ted 2012 TS.XViD.AC3-ADTRG.nfo211.00 b
TrackerSeedsLeechsDownloaded
udp://tracker.openbittorrent.com:80/scrape000
udp://tracker.publicbt.com:80/scrape000
http://tracker.ccc.de/scrape000
http://ipv4.tracker.harry.lu/scrape000
http://tracker.publicbt.com0/scrape000
http://tracker.istole.it:80/scrape000
http://publicbt.ath.cx/scrape000
http://tracker.ccc.de:80/scrape000
http://ipv6.tracker.harry.lu/scrape000
http://tracker.csze.com:80/scrape000
http://tracker.publicbt.org:80/scrape000
http://tracker1.publicbt.com:80/scrape000
http://torrentbay.to:6969/scrape000
http://retracker.hotplug.ru:2710/scrape000
http://www.th0r1n.com/scrape000
http://scrape.torrentsmd.com:8080/scrape.php000
http://scrape.torrentsmd.com:8080/scrape000
http://tracker.coppersurfer.tk:6969/scrape000
http://memtracker.appspot.com/scrape000
http://tracker.hdcmct.com:2710/scrape000
http://php.hdcmct.com:2710/scrape000
http://61.154.116.205:8000/scrape000
http://exodus.desync.com:6969/scrape000
http://tracker.ex.ua/scrape000
http://tracker.publicbt.com/scrape000
http://tracker.novalayer.org:6969/scrape000
http://tracker.torrentbay.to:6969/scrape000
http://cpleft.com:2710/scrape000
http://atrack.pow7.com/scrape000
http://eztv.tracker.prq.to/scrape000
http://tracker.publicbt.com:80/scrape000
http://pow7.com/scrape000
http://exodus.desync.com/scrape000
http://bt.rghost.net:80/scrape000
http://tracker.blazing.de:80/scrape000
http://tracker.ilibr.org:6969/scrape000
http://tracker.pow7.com:80/scrape000
http://10.rarbg.com:80/scrape000
http://tracker.prq.to:80/scrape000
http://tracker.token.ro:80/scrape000
http://pow7.com:80/scrape000
http://t1.pow7.com:80/scrape000
http://tracker.ilibr.org:80/scrape000
http://tracker.prq.to:6969/scrape000
http://t2.pow7.com/scrape000
http://tracker.1337x.org/scrape000
http://retracker.kld.ru/scrape000
http://scrape.xxx-tracker.com:2710/scrape000
http://t1.pow7.com/scrape000
http://secure.pow7.com/scrape000
http://tracker.prq.to/scrape000
http://tv.tracker.prq.to:80/scrape.php000
http://bt.home-ix.ru/scrape000
http://ix3.rutracker.net/scrape000
http://10.rarbg.com/scrape000
http://tracker.blazing.de:6969/scrape000
http://torrent-downloads.to:5869/scrape000
http://tracker.prq.to:80/scrape.php000
http://tpb.tracker.prq.to:80/scrape.php000
http://red.tracker.prq.to:80/scrape000
http://tv.tracker.prq.to:80/scrape000
Report this torrent
We will carefully monitor this report and react whenever possible.
Thanks for helping us in filtering out bad content and improving TorrentReactor for every other visitor!
Please login or register to be able to report torrents.

Your comment

Please Login or register to be able to add comments.

All comments

No one has added a comment yet. Be the first one.

Related music

Search for full music Ted 2012 TS XViD AC3 ADTRG, related to Ted 2012 TS XViD AC3 ADTRG