English

Fake torrent

Hell.2012.DVDrip.XviD

Total size: 720.89 Mb Seeds 0 Leechs 0
Hell.2012.DVDrip.XviD


Format                           : AVI
Format/Info                      : Audio Video Interleave
Format profile                   : OpenDML
Overall bit rate                 : 1 800 Kbps
Writing application              : VirtualDubMod 1.5.10.2 (build 2542/release)
Writing library                  : VirtualDubMod build 2542/release

[b]Video[/b]
Format                           : MPEG-4 Visual
Format settings, BVOP            : Yes
Format settings, QPel            : No
Format settings, Matrix          : Default (MPEG)
Codec ID                         : XVID
Codec ID/Hint                    : XviD
Bit rate                         : 1 411 Kbps
Width                            : 640 pixels
Height                           : 272 pixels
Display aspect ratio             : 2.35:1
Frame rate                       : 23.976 fps
Resolution                       : 24 bits
Colorimetry                      : 4:2:0
Scan type                        : Progressive
Bits/(Pixel*Frame)               : 0.338
Stream size                      : 1.03 GiB (78%)

[b]Audio[/b]
Format                           : AC-3
Format/Info                      : Audio Coding 3
Codec ID                         : 2000
Bit rate mode                    : Constant
Bit rate                         : 384 Kbps
Channel(s)                       : 6 channels
Channel positions                : Front: L C R, Surround: L R, LFE
Sampling rate                    : 48.0 KHz
Stream size                      : 287 MiB (21%)
Alignment                        : Aligned on interleaves
Interleave, duration             : 64 ms (1.53 video frames)
Interleave, preload duration     : 192 ms
FileSize
Hell.2012.DVDrip.XviD/Dmt Nfo.txt477.00 b
Hell.2012.DVDrip.XviD/Hell.2012.DVDrip.XviD.avi10.00 Mb
Hell.2012.DVDrip.XviD/Hell.2012.DVDrip.XviD.jpeg1.00 Mb
Hell.2012.DVDrip.XviD/Hell.2012.DVDrip.XviD.nfo1.00 Mb
Hell.2012.DVDrip.XviD/Hell.2012.DVDrip.XviD/Hell.2012.DVDrip.XviD.rar708.89 Mb
Hell.2012.DVDrip.XviD/Torrent Downloaded From downloadhindimovies.in.txt478.00 b
Hell.2012.DVDrip.XviD/Torrent downloaded from h33t.com.txt478.00 b
TrackerSeedsLeechsDownloaded
udp://tracker.openbittorrent.com:80/scrape000
http://tracker.novalayer.org:6969/scrape000
http://nyaatorrents.info:3277/scrape000
http://open.tracker.thepiratebay.org/scrape000
http://denis.stalker.h3q.com:6969/scrape000
http://www.th0r1n.com/scrape000
http://fr33dom.h33t.com:3310/scrape000
http://ipv4.tracker.harry.lu/scrape000
http://scrape.torrentsmd.com:8080/scrape.php000
http://scrape.torrentsmd.com:8080/scrape000
http://tracker.edgebooster.com:6969/scrape000
http://gdbt.3322.org:6969/scrape000
http://btrs-atrack.appspot.com/scrape000
http://memtracker.appspot.com/scrape000
http://mcasttracker.appspot.com/scrape000
http://amplicate.appspot.com/scrape000
http://dotehwerk.appspot.com/scrape000
http://tracker.prq.to/scrape000
http://cpleft.com:2710/scrape000
http://secure.pow7.com/scrape000
http://torrent-downloads.to:5869/scrape000
http://tv.tracker.prq.to:80/scrape.php000
http://tracker.torrentbay.to:6969/scrape000
http://bt.home-ix.ru/scrape000
http://ix3.rutracker.net/scrape000
http://10.rarbg.com/scrape000
http://pow7.com/scrape000
http://tracker.blazing.de:6969/scrape000
http://10.rarbg.com:80/scrape000
http://tracker.token.ro:80/scrape000
http://tracker.prq.to:80/scrape.php000
http://bt.firebit.org:2710/scrape000
http://tracker.publicbt.com:80/scrape000
http://tpb.tracker.prq.to:80/scrape.php000
http://tracker.publicbt.com/scrape000
http://red.tracker.prq.to:80/scrape000
http://tv.tracker.prq.to:80/scrape000
http://sombarato.org:6969/scrape000
http://tbp.tracker.prq.to:80/scrape000

Report this torrent

We will carefully monitor this report and react whenever possible.
Thanks for helping us in filtering out bad content and improving TorrentReactor for every other visitor!
Please login or register to be able to report torrents.

Your comment

Please Login or register to be able to add comments.

All comments

No one has added a comment yet. Be the first one.

Related torrents

Hell.2012.DVDrip.XviD, related to Hell.2012.DVDrip.XviD