English

Fake torrent

The Dictator (2012) CAM.XviD.Redyz

Total size: 670.25 Mb Seeds 0 Leechs 0
The Dictator (2012) CAM.XviD.Redyz
http://1.bp.blogspot.com/-CJ6-nNdxqM4/T6aCPh7P9cI/AAAAAAAABDo/c7XABFEXz90/s1600/the-dictator-poster-2.jpg

Video
ID                               : 0
Format                           : MPEG-4 Visual
Format profile                   : Advanced Simple@L5
Format settings, BVOP            : Yes
Format settings, QPel            : No
Format settings, GMC             : No warppoints
Format settings, Matrix          : Default (H.263)
Muxing mode                      : Packed bitstream
Codec ID                         : XVID
Codec ID/Hint                    : XviD
Duration                         : 1h 13mn
Bit rate                         : 1 135 Kbps
Width                            : 640 pixels
Height                           : 228 pixels
Display aspect ratio             : 2.807
Frame rate                       : 25.000 fps
Color space                      : YUV
Chroma subsampling               : 4:2:0
Bit depth                        : 8 bits
Scan type                        : Progressive
Bits/(Pixel*Frame)               : 0.311
Stream size                      : 598 MiB (89%)
Writing library                  : XviD 1.2.1 (UTC 2008-12-04)

Audio
ID                               : 1
Format                           : MPEG Audio
Format version                   : Version 2
Format profile                   : Layer 3
Mode                             : Joint stereo
Mode extension                   : MS Stereo
Codec ID                         : 55
Codec ID/Hint                    : MP3
Duration                         : 1h 13mn
Bit rate mode                    : Constant
Bit rate                         : 128 Kbps
Channel(s)                       : 2 channels
Sampling rate                    : 22.05 KHz
Video delay                      : 3s 800ms
Stream size                      : 67.0 MiB (10%)
Alignment                        : Split accross interleaves
Interleave, duration             : 40 ms (1.01 video frame)
Interleave, preload duration     : 500 ms
Writing library                  : LAME3.98r
FileSize
The Dictator (2012) CAM.XviD.Redyz/Read Me.txt257.00 b
The Dictator (2012) CAM.XviD.Redyz/The Dictator (2012) CAM.XviD.rar670.00 Mb
The Dictator (2012) CAM.XviD.Redyz/_____padding_file_0_if you see this file, please update to BitComet 0.85 or above____255.75 Kb
TrackerSeedsLeechsDownloaded
udp://tracker.openbittorrent.com:80/scrape000
http://www.smartorrent.com:2710//scrape000
http://tracker.ccc.de/scrape000
http://exodus.desync.com:6969/scrape000
http://tracker.ex.ua/scrape000
http://tracker.publicbt.com/scrape000
http://ipv4.tracker.harry.lu/scrape000
http://tracker.publicbt.com0/scrape000
http://tracker.novalayer.org:6969/scrape000
http://tracker.torrentbay.to:6969/scrape000
http://cpleft.com:2710/scrape000
http://tracker.istole.it/scrape000
http://atrack.pow7.com/scrape000
http://eztv.tracker.prq.to/scrape000
http://tracker-1.podmailing.com/scrape000
http://publicbt.ath.cx/scrape000
http://pow7.com/scrape000
http://exodus.desync.com/scrape000
http://ipv6.tracker.harry.lu/scrape000
http://tracker.ipv6tracker.org/scrape000
http://bt.rghost.net/scrape000
http://tracker.csze.com/scrape000
http://tracker.blazing.de/scrape000
http://tracker.ilibr.org:6969/scrape000
http://tracker.pow7.com/scrape000
http://10.rarbg.com/scrape000
http://tracker.publicbt.org/scrape000
http://tracker.prq.to/scrape000
http://tracker.token.ro/scrape000
http://tracker1.publicbt.com/scrape000
http://t1.pow7.com/scrape000
http://tracker.ilibr.org/scrape000
http://tracker.1337x.org/scrape000
http://torrentbay.to:6969/scrape000
http://61.154.116.205:8000/scrape000
http://tracker.hdcmct.com:2710/scrape000
http://php.hdcmct.com:2710/scrape000
http://nyaatorrents.info:3277/scrape000
http://www.th0r1n.com/scrape000
http://ix3.rutracker.net/scrape000
http://scrape.torrentsmd.com:8080/scrape.php000
http://scrape.torrentsmd.com:8080/scrape000
http://luckybittorrent.com:2710/scrape000
http://mcasttracker.appspot.com/scrape000
http://memtracker.appspot.com/scrape0000
http://amplicate.appspot.com/scrape000
http://btrs-atrack.appspot.com/scrape000
http://dotehwerk.appspot.com/scrape000
http://tracker.prq.to:6969/scrape000
http://t2.pow7.com/scrape000
http://bt.e-burg.org:2710/scrape000
http://retracker.hotplug.ru:2710/scrape000
http://retracker.kld.ru/scrape000
http://tracker.yify-torrents.com/scrape000
http://scrape.xxx-tracker.com:2710/scrape000
http://tracker.coppersurfer.tk:6969/scrape000
http://secure.pow7.com/scrape000
http://tv.tracker.prq.to/scrape.php000
http://bt.home-ix.ru/scrape000
http://tracker.blazing.de:6969/scrape000
http://torrent-downloads.to:5869/scrape000
http://tracker.prq.to/scrape.php000
http://bt.firebit.org:2710/scrape000
http://tpb.tracker.prq.to/scrape.php000
http://red.tracker.prq.to/scrape000
http://tv.tracker.prq.to/scrape000

Report this torrent

We will carefully monitor this report and react whenever possible.
Thanks for helping us in filtering out bad content and improving TorrentReactor for every other visitor!
Please login or register to be able to report torrents.

Your comment

Please Login or register to be able to add comments.

All comments

No one has added a comment yet. Be the first one.

Related torrents

The Dictator (2012) CAM.XviD.Redyz, related to The Dictator (2012) CAM.XviD.Redyz