Fake torrent

Ted 2012 DVDRip XviD - iOTA torrent

Total size: 699.05 Mb Seeds 0 Leechs 0
Ted 2012 DVDRip XviD - iOTA
Ted 2012 DVDRip XviD - iOTAFormat : AVIFormat/Info : Audio Video InterleaveFormat profile : OpenDMLFile size : 699 MiBDuration : 1h 46mnOverall bit rate : 1 052 KbpsWriting application : VirtualDubMod 1.5.10.2 (build 2542/release)Writing library : VirtualDubMod build 2542/releaseVideoID : 0Format : MPEG-4 VisualFormat profile : AdvancedSimple@L5Format settings, BVOP : YesFormat settings, QPel : NoFormat settings, GMC : No warppointsFormat settings, Matrix : Default (MPEG)Codec ID : XVIDCodec ID/Hint : XviDDuration : 1h 46mnBit rate : 942 KbpsWidth : 640 pixelsHeight : 272 pixelsDisplay aspect ratio : 2.35:1Frame rate : 23.976 fpsResolution : 24 bitsColorimetry : 4:2:0Scan type : ProgressiveBits/(Pixel*Frame) : 0.271Stream size : 669 MiB (78%)Writing library : XviD 1.2.1 (UTC 2008-12-04)AudioID : 1Format : AC-3Format/Info : Audio Coding 3Codec ID : 2000Duration : 1h 46mnBit rate mode : ConstantBit rate : 128 KbpsChannel(s) : 2 channelsChannel positions : Front: L  RSampling rate : 48.0 KHzStream size : 30 MiB (22%)Alignment : Aligned on interleavesInterleave, duration : 64 ms (1.53 video frames)Interleave, preload duration : 192 msSource: DVD (perfect a/v/sync quality,sample included)-This torrent is not seedbox supported,please seed it.
FileSize
Cover.jpg15.96 Kb
screenshot.jpg33.41 Kb
Ted 2012 DVDRip XviD - iOTA.nfo1.32 Kb
Ted 2012 DVDRip XviD - iOTA/password.txt217.00 b
Ted 2012 DVDRip XviD - iOTA/Ted 2012 DVDRip XviD - iOTA.rar699.00 Mb
TrackerSeedsLeechsDownloaded
udp://tracker.openbittorrent.com:80/scrape000
udp://tracker.publicbt.com:80/scrape000
udp://tracker.istole.it:6969/scrape000
http://inferno.demonoid.me:3409/scrape000
http://luckybittorrent.com:2710/scrape000
http://tracker.torrentbox.com:2710/scrape000
http://exodus.desync.com:6969/scrape000
http://cpleft.com:2710/scrape000
http://secure.pow7.com/scrape000
http://tracker.novalayer.org:6969/scrape000
http://t1.pow7.com/scrape000
http://10.rarbg.com/scrape000
http://pow7.com/scrape000
http://tracker.zond.org/scrape000
http://tracker.torrentbay.to:6969/scrape000
http://tracker.openbittorrent.com/scrape000
Report this torrent
We will carefully monitor this report and react whenever possible.
Thanks for helping us in filtering out bad content and improving TorrentReactor for every other visitor!
Please login or register to be able to report torrents.

Your comment
Please Login or register to be able to add comments.
All comments

No one has added a comment yet. Be the first one.

Related torrents
Ted 2012 DVDRip XviD - iOTA, related to Ted 2012 DVDRip XviD - iOTA