Snow White and the Huntsman 2012 DVDRip Avi

Fake torrent

Snow White and the Huntsman 2012 DVDRip Avi

Total size: 843.29 Mb Seeds 0 Leechs 0
Snow White and the Huntsman 2012 DVDRip Avi
Snow White and the Huntsman 2012

-------------------------------------------------------------------
Please share....Dont hit and run...Seed it back at least once.

Of course, if you want to seed it back more than once, that would be ok too :)
-------------------------------------------------------------------    

QUALITY:  PERFECT 10/10

All details are here:

Format  | AVI           Language | ENGLISH  
Source  | DVD PAL       Subs     | NONE

QUALITY:  PERFECT 10/10

- Video
ID                               : 0
Format                           : MPEG-4 Visual
Format profile                   : Advanced Simple@L5
Format settings, BVOP            : Yes
Format settings, QPel            : No
Format settings, GMC             : No warppoints
Format settings, Matrix          : Default (H.263)
Muxing mode                      : Packed bitstream
Codec ID                         : XVID
Codec ID/Hint                    : XviD
Bit rate                         : 1 345 Kbps
Width                            : 720 pixels
Height                           : 314 pixels
Display aspect ratio             : 2.25:1
Frame rate                       : 29.970 fps
Color space                      : YUV
Chroma subsampling               : 4:2:0
Bit depth                        : 8 bits
Scan type                        : Progressive
Compression mode                 : Lossy
Bits/(Pixel*Frame)               : 0.198
Stream size                      : 1.19 GiB (87%)
Writing library                  : XviD 1.1.0 (UTC 2005-11-22)

- Audio
ID                               : 1
Format                           : AC-3
Format/Info                      : Audio Coding 3
Mode extension                   : CM (complete main)
Codec ID                         : 2000
Bit rate mode                    : Constant
Bit rate                         : 192 Kbps
Channel(s)                       : 2 channels
Channel positions                : Front: L R
Sampling rate                    : 48.0 KHz
Bit depth                        : 16 bits
Compression mode                 : Lossy
Stream size                      : 175 MiB (12%)
Alignment                        : Aligned on interleaves
Interleave, duration             : 33 ms (1.00 video frame)
Interleave, preload duration     : 512 ms    

- Greets

Greets to | X | Joshua08 | IMAGiNE | PrisM | DiGiTAL iNK |

Torrent Name :  Snow White and the Huntsman 2012 DVDRip Avi

------------------------------------------------------------------------------------------

GENRE : Action | Adventure | Drama

The Plot :-In a twist to the fairy tale, the Huntsman ordered to take Snow White into the

woods to be killed winds up becoming her protector and mentor in a quest to vanquish

the Evil Queen.
------------------------------------------------------------------------------------------

FileSize
Snow White and the Huntsman 2012 DVDRip-Avi/ExtraTorrentRG.mp41.45 Mb
Snow White and the Huntsman 2012 DVDRip-Avi/MOVIE.nfo4.74 Kb
Snow White and the Huntsman 2012 DVDRip-Avi/Sample AVI.avi2.86 Mb
Snow White and the Huntsman 2012 DVDRip-Avi/Snow White and the Huntsman 2012 DVDRip-Avi.avi838.86 Mb
Snow White and the Huntsman 2012 DVDRip-Avi/Subs[ENG].srt133.49 Kb
Snow White and the Huntsman 2012 DVDRip-Avi/Torrent downloaded from Rarbg.com.txt22.00 b
Snow White and the Huntsman 2012 DVDRip-Avi/Torrent downloaded from www.KAT.ph.txt41.00 b
Snow White and the Huntsman 2012 DVDRip-Avi/Torrent_downloaded_from_Extratorrent_Com.txt42.00 b
TrackerSeedsLeechsDownloaded
udp://tracker.istole.it:80/scrape000
udp://tracker.publicbt.com:80/scrape000
http://www.h33t.com:3310/scrape000
http://fr33dom.h33t.com:3310/scrape000
http://exodus.desync.com:6969/scrape000
Report this torrent
We will carefully monitor this report and react whenever possible.
Thanks for helping us in filtering out bad content and improving TorrentReactor for every other visitor!
Please login or register to be able to report torrents.

Your comment

Please Login or register to be able to add comments.

All comments

No one has added a comment yet. Be the first one.

Related movies

Search for full movies Snow White and the Huntsman 2012 DVDRip Avi, related to Snow White and the Huntsman 2012 DVDRip Avi