Fake torrent

Prometheus (2012) DVDRiP XviD HS torrent

Total size: 1.41 Gb Seeds 0 Leechs 0
Prometheus (2012) DVDRiP XviD HSFormat                           : AVIFormat/Info                      : Audio Video InterleaveFormat profile                   : OpenDMLFile size                        : 1.41 GiBDuration                         : 124 minOverall bit rate                 : 1 398 KbpsWriting application              : VirtualDubMod 1.5.10.2 (build 2542/release)Writing library                  : VirtualDubMod build 2542/releaseOriginal source form             : MAX TORRENTZCopyright                        : SIGISMUNTVideoID                               : 0Format                           : MPEG-4 VisualFormat profile                   : AdvancedSimple@L5Format settings, BVOP            : YesFormat settings, QPel            : NoFormat settings, GMC             : No warppointsFormat settings, Matrix          : Default (MPEG)Codec ID                         : XVIDCodec ID/Hint                    : XviDDuration                         : 124 minBit rate                         : 1 009 KbpsWidth                            : 640 pixelsHeight                           : 272 pixelsDisplay aspect ratio             : 2.35:1Frame rate                       : 23.976 fpsResolution                       : 24 bitsColorimetry                      : 4:2:0Scan type                        : ProgressiveBits/(Pixel*Frame)               : 0.242Stream size                      : 959 MiB (72%)Writing library                  : XviD 64AudioID                               : 1Format                           : AC-3Format/Info                      : Audio Coding 3Codec ID                         : 2000Duration                         : 124 minBit rate mode                    : ConstantBit rate                         : 384 KbpsChannel(s)                       : 6 channelsChannel positions                : Front: L C R, Surround: L R, LFESampling rate                    : 48.0 KHzStream size                      : 365 MiB (27%)Alignment                        : Aligned on interleavesInterleave, duration             : 64 ms (1.53 video frames)Interleave, preload duration     : 192 msSource: DVD (perfect a/v/sync quality,sample included,hardcoded englishsubs for few original foreign parts)This torrent is not seedbox supported,please seed it to the MAXNote: We need anything you can offer as early releases,seedboxes,links,accounts,etcplease contact us on piratepedia[@]msn/gmail.com or our website torentz 3xforum roPrometheus (2012) DVDRiP XviD HS Torrent Free Downloadhttp://www.imdb.com/title/tt1446714/
FileSize
Prometheus (2012) DVDRiP XviD HS/MOVIE.nfo4.74 Kb
Prometheus (2012) DVDRiP XviD HS/Prometheus (2012) DVDRiP XviD HS.avi1.41 Gb
Prometheus (2012) DVDRiP XviD HS/Subs[ENG].srt133.49 Kb
Prometheus (2012) DVDRiP XviD HS/Torrent downloaded from Rarbg.com.txt22.00 b
Prometheus (2012) DVDRiP XviD HS/Torrent_downloaded_from_Extratorrent_Com.txt42.00 b
TrackerSeedsLeechsDownloaded
udp://tracker.yify-torrents.com/scrape000
udp://exodus.desync.com:6969/scrape000
udp://tracker.openbittorrent.com:80/scrape000
udp://tracker.istole.it:80/scrape000
udp://9.rarbg.com:2710/scrape000
udp://10.rarbg.com/scrape000
udp://11.rarbg.com/scrape000
http://fr33dom.h33t.com:3310/scrape000
http://tracker.ilibr.org:6969/scrape000
http://ipv4.tracker.harry.lu/scrape000
http://scrape.torrentsmd.com:6969/scrape000
http://tracker.ipv6tracker.org/scrape000
http://tracker.publicbt.org:80/scrape000
http://ipv6.tracker.harry.lu/scrape000
http://tracker.ilibr.org:80/scrape000
http://tracker.csze.com:80/scrape000
http://luckybittorrent.com:2710/scrape000
http://tracker.ccc.de/scrape000
http://inferno.demonoid.me:3414/scrape000
http://tracker.ex.ua/scrape000
http://exodus.desync.com/scrape000
http://tracker.etree.org:6969/scrape000
http://retracker.hotplug.ru:2710/scrape000
http://tracker.yify-torrents.com/scrape000
http://tracker.publicbt.com:80/scrape000
http://a.tv.tracker.prq.to/scrape000
http://tracker.prq.to:6969/scrape000
http://exodus.desync.com:6969/scrape000
http://exodus.desync.com/scrape1000
http://10.rarbg.com/scrape 000
http://gemini.tracker.prq.to/scrape000
http://tracker.jamendo.com/scrape000
http://pow7.com:80/scrape000
http://bt.rghost.net:80/scrape000
http://tracker.blazing.de:80/scrape000
http://tracker.pow7.com:80/scrape000
http://t2.pow7.com/scrape000
http://tracker.prq.to:80/scrape000
http://tracker.token.ro:80/scrape000
http://t1.pow7.com:80/scrape000
http://10.rarbg.com:80/scrape000
Report this torrent
We will carefully monitor this report and react whenever possible.
Thanks for helping us in filtering out bad content and improving TorrentReactor for every other visitor!
Please login or register to be able to report torrents.

Your comment
Please Login or register to be able to add comments.
All comments

No one has added a comment yet. Be the first one.

Related torrents
Prometheus (2012) DVDRiP XviD HS, related to Prometheus (2012) DVDRiP XviD HS