Download Prometheus (2012) (Hindi) 720p HD torrent

Fake torrent

Prometheus (2012) (Hindi) 720p HD torrent

Total size: 951.92 Mb Seeds 0 Leechs 0
Prometheus (2012)Format                           : AVIFormat/Info                      : Audio Video InterleaveFormat profile                   : OpenDMLFile size                        : 951 MiBDuration                         : 1h 49mnOverall bit rate                 : 1 714 KbpsWriting application              : VirtualDubMod 1.5.10.2 (build 2542/release)Writing library                  : VirtualDubMod build 2542/releaseOriginal source form             : MAX TORRENTZVideoID                               : 0Format                           : MPEG-4 VisualFormat profile                   : AdvancedSimple@L5Format settings, BVOP            : YesFormat settings, QPel            : NoFormat settings, GMC             : No warppointsFormat settings, Matrix          : Default (H.263)Codec ID                         : XVIDCodec ID/Hint                    : XviDDuration                         : 1h 49mnBit rate                         : 1 325 KbpsWidth                            : 640 pixelsHeight                           : 272 pixelsDisplay aspect ratio             : 2.35:1Frame rate                       : 23.976 fpsResolution                       : 24 bitsColorimetry                      : 4:2:0Scan type                        : ProgressiveBits/(Pixel*Frame)               : 0.318Stream size                      : 951 MiB (77%)Writing library                  : XviD 61AudioID                               : 1Format                           : AC-3Format/Info                      : Audio Coding 3Codec ID                         : 2000Duration                         : 1h 49mnBit rate mode                    : ConstantBit rate                         : 384 KbpsChannel(s)                       : 6 channelsChannel positions                : Front: L C R, Surround: L R, LFESampling rate                    : 48.0 KHzStream size                      : 147 MiB (22%)Alignment                        : Aligned on interleavesInterleave, duration             : 64 ms (1.54 video frames)Interleave, preload duration     : 192 mshttp://www.imdb.com/title/tt1446714/Source: DVD (perfect a/v/sync quality+filtered audio with additional 400% volume , sample is included)How To Get Your Maxspeed (uTorrent)Torrent Client - Preferences - Bandwidth - Number of connections - Set aprox. 500 for each Torrent Client - Preferences - BiTorrent - Protocol Encryption - ForcedBandwidth Allocation - High (Set download/upload limit - Unlimited)Stop Other Active Torrents - Start downloading and wait for connections.Enjoy and Seed for at least 1:1 ratio. Don't forget to say thanks/leave reviews.Before downloading you should check/google search sample "release name""sample".Greets to all actual/future p2p/scene QUALITY groups and affiliate websites.Don't trust IMDb robot or bad ratings,always watch some trailers first.Ignore stupid comments/fake/mislabeled/no-DVDrips/CAM/TS/RAR uploads.Please spread this release/torrent to your friends/forums/etc.If you need translation subs visit some subtitles sites.Report if you see online streaming or other spam links.Recommended movie player VLC PLAYER.
FileSize
Prometheus (2012) (Hindi) 720p HD/Prometheus (2012) (Hindi) 720p HD.avi918.86 Mb
Prometheus (2012) (Hindi) 720p HD/Release.nfo9.89 Kb
Prometheus (2012) (Hindi) 720p HD/Subs[ENG].srt133.49 Kb
Prometheus (2012) (Hindi) 720p HD/Torrent downloaded from Demonoid.me.txt46.00 b
Prometheus (2012) (Hindi) 720p HD/Torrent downloaded from Extratorrent.com.txt40.00 b
Prometheus (2012) (Hindi) 720p HD/Torrent downloaded from h33t.com.txt32.00 b
Prometheus (2012) (Hindi) 720p HD/sample.avi32.92 Mb
TrackerSeedsLeechsDownloaded
udp://tracker.openbittorrent.com:80/scrape000
http://bigtorrent.org:2710/scrape000
http://inferno.demonoid.com:3414/scrape000
http://pow7.com/scrape000
http://tracker.publicbt.com:80/scrape000
http://tracker.publicbt.com/scrape000
http://10.rarbg.com/scrape000
http://tracker.yify-torrents.com/scrape000
http://tracker.torrentbay.to:6969/scrape000
Report this torrent
We will carefully monitor this report and react whenever possible.
Thanks for helping us in filtering out bad content and improving TorrentReactor for every other visitor!
Please login or register to be able to report torrents.

Your comment
Please Login or register to be able to add comments.
All comments

No one has added a comment yet. Be the first one.

Related torrents
Prometheus (2012) (Hindi) 720p HD, related to Prometheus (2012) (Hindi) 720p HD