Download The Avengers 2012 FRENCH DVDRiP XviD-IMAGiNE torrent

Fake torrent

The Avengers 2012 FRENCH DVDRiP XviD-IMAGiNE torrent

Total size: 699.72 Mb Seeds 0 Leechs 0
The Avengers 2012 FRENCH DVDRiP XviD-IMAGiNE
The.Avengers.2012.FRENCH.DVDRiP.XviD-IMAGiNEFormat : AVIFormat/Info : Audio Video InterleaveFormat profile : OpenDMLFile size : 699 MiBDuration : 2h 23mnOverall bit rate : 1 052 KbpsWriting application : VirtualDubMod 1.5.10.2 (build 2542/release)Writing library : VirtualDubMod build 2542/releaseVideoID : 0Format : MPEG-4 VisualFormat profile : AdvancedSimple@L5Format settings, BVOP : YesFormat settings, QPel : NoFormat settings, GMC : No warppointsFormat settings, Matrix : Default (MPEG)Codec ID : XVIDCodec ID/Hint : XviDDuration : 2h 23mnBit rate : 942 KbpsWidth : 640 pixelsHeight : 272 pixelsDisplay aspect ratio : 2.35:1Frame rate : 23.976 fpsResolution : 24 bitsColorimetry : 4:2:0Scan type : ProgressiveBits/(Pixel*Frame) : 0.271Stream size : 669 MiB (78%)Writing library : XviD 1.2.1 (UTC 2008-12-04)AudioID : 1Format : AC-3Format/Info : Audio Coding 3Codec ID : 2000Duration : 2h 23mnBit rate mode : ConstantBit rate : 128 KbpsChannel(s) : 2 channelsChannel positions : Front: L  RSampling rate : 48.0 KHzStream size : 30 MiB (22%)Alignment : Aligned on interleavesInterleave, duration : 64 ms (1.53 video frames)Interleave, preload duration : 192 msSource: DVD (perfect a/v/sync quality,sample included)This torrent is not seedbox supported,please seed it.
FileSize
Cover.jpg224.09 Kb
Screenshot01.png158.36 Kb
Screenshot02.png190.44 Kb
Screenshot03.png166.43 Kb
The.Avengers.2012.FRENCH.DVDRiP.XviD-IMAGiNE.nfo1.34 Kb
The.Avengers.2012.FRENCH.DVDRiP.XviD-IMAGiNE/The.Avengers.2012.FRENCH.DVDRiP.XviD-IMAGiNE.rar699.00 Mb
TrackerSeedsLeechsDownloaded
udp://tracker.openbittorrent.com:80/scrape000
udp://tracker.publicbt.com:80/scrape000
http://inferno.demonoid.me:3409/scrape000
http://luckybittorrent.com:2710/scrape000
http://tracker.torrentbox.com:2710/scrape000
http://exodus.desync.com:6969/scrape000
http://cpleft.com:2710/scrape000
http://secure.pow7.com/scrape000
http://tracker.novalayer.org:6969/scrape000
http://t1.pow7.com/scrape000
http://10.rarbg.com/scrape000
http://pow7.com/scrape000
http://tracker.zond.org/scrape000
http://tracker.torrentbay.to:6969/scrape000
http://tracker.openbittorrent.com/scrape000
Report this torrent
We will carefully monitor this report and react whenever possible.
Thanks for helping us in filtering out bad content and improving TorrentReactor for every other visitor!
Please login or register to be able to report torrents.

Your comment
Please Login or register to be able to add comments.
All comments

No one has added a comment yet. Be the first one.

Related torrents
The Avengers 2012 FRENCH DVDRiP XviD-IMAGiNE, related to The Avengers 2012 FRENCH DVDRiP XviD-IMAGiNE