Fake torrent

[UsaBit.com] -Snow.White.and.the.Huntsman.2012.TS.RIP.AC3-ADTRG torrent

Total size: 857.03 Mb Seeds 0 Leechs 0
::::::::::::::Enjoy:Another:Release:From:T0XiC::::::::::::::
IMDB:: http://www.imdb.com/title/tt1735898/
File:: [UsaBit.com] -Snow.White.and.the.Huntsman.2012.TS.RIP.AC3-ADTRG
Video Source:: ADTGR
Audio Source:: ADTGR
Language::English

In a twist to the fairy tale, the Huntsman ordered to take Snow White into the woods to be killed winds up becoming her protector and mentor in a quest to vanquish the Evil Queen. 

Specs::

General

Format                           : AVI
Format/Info                      : Audio Video Interleave
File size                        : 717 MB
Duration                         : 1h 21mn
Overall bit rate                 : 1 761 Kbps
Writing application              : VirtualDubMod 1.5.10.2 (build 2540/release)
Writing library                  : VirtualDubMod build 2540/release

Video
ID                               : 0
Format                           : MPEG-4 Visual
Format profile                   : Advanced Simple@L5
Format settings, BVOP            : Yes
Format settings, QPel            : No
Format settings, GMC             : No warppoints
Format settings, Matrix          : Default (H.263)
Muxing mode                      : Packed bitstream
Codec ID                         : XVID
Codec ID/Hint                    : XviD
Duration                         : 1h 51mn
Bit rate                         : 1 495 Kbps
Width                            : 720 pixels
Height                           : 306 pixels
Display aspect ratio             : 2.35:1
Frame rate                       : 25.000 fps
Color space                      : YUV
Chroma subsampling               : 4:2:0
Bit depth                        : 8 bits
Scan type                        : Progressive
Bits/(Pixel*Frame)               : 0.271
Stream size                      : 1.16 GiB (85%)
Writing library                  : XviD 1.2.1 (UTC 2008-12-04)

Audio
ID                               : 1
Format                           : MPEG Audio
Format version                   : Version 1
Format profile                   : Layer 3
Codec ID                         : 55
Codec ID/Hint                    : MP3
Duration                         : 1h 51mn
Bit rate mode                    : Constant
Bit rate                         : 256 Kbps
Channel(s)                       : 2 channels
Sampling rate                    : 44.1 KHz
Stream size                      : 204 MiB (15%)
Alignment                        : Split accross interleaves
Interleave, duration             : 40 ms (1.00 video frame)
Interleave, preload duration     : 500 ms

By ADTGR
FileSize
[UsaBit.com] -Snow.White.and.the.Huntsman.2012.TS.RIP.AC3-ADTRG/[UsaBit.com] -Snow.White.and.the.Huntsman.2012.TS.RIP.AC3-ADTRG.zip849.59 Mb
[UsaBit.com] -Snow.White.and.the.Huntsman.2012.TS.RIP.AC3-ADTRG/[UsaBit.com] -Snow.White.and.the.Huntsman.2012.TS.RIP.AC3-ADTRG.avi6.09 Mb
[UsaBit.com] -Snow.White.and.the.Huntsman.2012.TS.RIP.AC3-ADTRG/Other/Snow-White-and-the-Huntsman-2012-scene-4.jpg597.84 Kb
[UsaBit.com] -Snow.White.and.the.Huntsman.2012.TS.RIP.AC3-ADTRG/Snow.White.and.the.Huntsman.2012.TS.RIP.AC3-ADTRG.srt181.81 Kb
[UsaBit.com] -Snow.White.and.the.Huntsman.2012.TS.RIP.AC3-ADTRG/Other/Snow-White-And-The-Huntsman-2012-Film-Wallpaper.jpeg161.82 Kb
[UsaBit.com] -Snow.White.and.the.Huntsman.2012.TS.RIP.AC3-ADTRG/[UsaBit.com] -Snow.White.and.the.Huntsman.2012.TS.RIP.AC3-ADTRG.YIFY2.srt91.64 Kb
[UsaBit.com] -Snow.White.and.the.Huntsman.2012.TS.RIP.AC3-ADTRG/Other/Snow-White-And-The-Huntsman-2012-scene-3.jpg87.37 Kb
[UsaBit.com] -Snow.White.and.the.Huntsman.2012.TS.RIP.AC3-ADTRG/Other/Snow-White-And-The-Huntsman-2012-scene-2.jpg79.04 Kb
[UsaBit.com] -Snow.White.and.the.Huntsman.2012.TS.RIP.AC3-ADTRG/Other/snow-white-and-the-huntsman-Charlize-Theron-2012.jpg67.54 Kb
[UsaBit.com] -Snow.White.and.the.Huntsman.2012.TS.RIP.AC3-ADTRG/Other/Snow-White-And-The-Huntsman-2012-scene-1.jpg42.86 Kb
[UsaBit.com] -Snow.White.and.the.Huntsman.2012.TS.RIP.AC3-ADTRG/Other/Snow White and the Huntsman 2012 - banner.jpg38.16 Kb
[UsaBit.com] -Snow.White.and.the.Huntsman.2012.TS.RIP.AC3-ADTRG/Other/Snow-White-And-The-Huntsman-2012.jpg27.96 Kb
[UsaBit.com] -Snow.White.and.the.Huntsman.2012.TS.RIP.AC3-ADTRG/[UsaBit.com] -Snow.White.and.the.Huntsman.2012.TS.RIP.AC3-ADTRG.nfo2.56 Kb
[UsaBit.com] -Snow.White.and.the.Huntsman.2012.TS.RIP.AC3-ADTRG/Readme_First.html1.08 Kb
TrackerSeedsLeechsDownloaded
udp://tracker.istole.it:80/scrape000
udp://tracker.publicbt.com:80/scrape000
http://tracker.istole.it/scrape000
http://tracker.publicbt.com/scrape000
http://exodus.desync.com:6969/scrape000
Report this torrent
We will carefully monitor this report and react whenever possible.
Thanks for helping us in filtering out bad content and improving TorrentReactor for every other visitor!
Please login or register to be able to report torrents.

Your comment
Please Login or register to be able to add comments.
All comments

No one has added a comment yet. Be the first one.

Related torrents
[UsaBit.com] -Snow.White.and.the.Huntsman.2012.TS.RIP.AC3-ADTRG, related to [UsaBit.com] -Snow.White.and.the.Huntsman.2012.TS.RIP.AC3-ADTRG