Download Snow White and the Huntsman 2012 DVDRip XviD MAX torrent

Fake torrent

Snow White and the Huntsman 2012 DVDRip XviD MAX torrent

Total size: 1.35 Gb Seeds 0 Leechs 0
Snow White and the Huntsman 2012 DVDRip XviD MAX
Snow White and the Huntsman (2012) DVDRip XviD-MAX
Format                           : AVI
Format/Info                      : Audio Video Interleave
Format profile                   : OpenDML
File size                        : 1.34 GiB
Duration                         : 127 min
Overall bit rate                 : 1 398 Kbps
Writing application              : VirtualDubMod 1.5.10.2 (build 2542/release)
Writing library                  : VirtualDubMod build 2542/release
Original source form             : MAX TORRENTZ
Copyright                        : SIGISMUNT

Video
ID                               : 0
Format                           : MPEG-4 Visual
Format profile                   : AdvancedSimple@L5
Format settings, BVOP            : Yes
Format settings, QPel            : No
Format settings, GMC             : No warppoints
Format settings, Matrix          : Default (MPEG)
Codec ID                         : XVID
Codec ID/Hint                    : XviD
Duration                         : 127 min
Bit rate                         : 1 009 Kbps
Width                            : 640 pixels
Height                           : 272 pixels
Display aspect ratio             : 2.35:1
Frame rate                       : 23.976 fps
Resolution                       : 24 bits
Colorimetry                      : 4:2:0
Scan type                        : Progressive
Bits/(Pixel*Frame)               : 0.242
Stream size                      : 959 MiB (72%)
Writing library                  : XviD 64

Audio
ID                               : 1
Format                           : AC-3
Format/Info                      : Audio Coding 3
Codec ID                         : 2000
Duration                         : 127 min
Bit rate mode                    : Constant
Bit rate                         : 384 Kbps
Channel(s)                       : 6 channels
Channel positions                : Front: L C R, Surround: L R, LFE
Sampling rate                    : 48.0 KHz
Stream size                      : 365 MiB (27%)
Alignment                        : Aligned on interleaves
Interleave, duration             : 64 ms (1.53 video frames)
Interleave, preload duration     : 192 ms

Source: DVD (perfect a/v/sync quality,sample included,hardcoded english
subs for few original foreign parts)
This torrent is not seedbox supported,please seed it to the MAX

Note: We need anything you can offer as early releases,seedboxes,links,accounts,etc
please contact us on piratepedia[@]msn/gmail.com or our website torentz 3xforum ro

Snow White and the Huntsman (2012) DVDRip XviD-MAX Torrent Free Download

http://www.imdb.com/title/tt1735898/
FileSize
Snow White and the Huntsman (2012) DVDRip XviD-MAX/MOVIE.nfo4.74 Kb
Snow White and the Huntsman (2012) DVDRip XviD-MAX/Snow White and the Huntsman (2012) DVDRip XviD-MAX.avi1.35 Gb
Snow White and the Huntsman (2012) DVDRip XviD-MAX/Subs[ENG].srt133.49 Kb
Snow White and the Huntsman (2012) DVDRip XviD-MAX/Torrent downloaded from Rarbg.com.txt22.00 b
Snow White and the Huntsman (2012) DVDRip XviD-MAX/Torrent_downloaded_from_Extratorrent_Com.txt42.00 b
TrackerSeedsLeechsDownloaded
udp://tracker.yify-torrents.com/scrape000
udp://exodus.desync.com:6969/scrape000
udp://tracker.openbittorrent.com:80/scrape000
udp://10.rarbg.com/scrape000
udp://11.rarbg.com/scrape000
udp://tracker.istole.it:80/scrape000
udp://9.rarbg.com:2710/scrape000
http://fr33dom.h33t.com:3310/scrape000
http://tracker.ilibr.org:6969/scrape000
http://ipv4.tracker.harry.lu/scrape000
http://scrape.torrentsmd.com:6969/scrape000
http://tracker.ipv6tracker.org/scrape000
http://tracker.publicbt.org:80/scrape000
http://ipv6.tracker.harry.lu/scrape000
http://tracker.ilibr.org:80/scrape000
http://tracker.csze.com:80/scrape000
http://luckybittorrent.com:2710/scrape000
http://tracker.ccc.de/scrape000
http://tracker.ex.ua/scrape000
http://exodus.desync.com/scrape000
http://exodus.desync.com:6969/scrape000
http://tracker.etree.org:6969/scrape000
http://inferno.demonoid.me:3414/scrape000
http://retracker.hotplug.ru:2710/scrape000
http://tracker.yify-torrents.com/scrape000
http://tracker.publicbt.com:80/scrape000
http://a.tv.tracker.prq.to/scrape000
http://tracker.prq.to:6969/scrape000
http://exodus.desync.com/scrape1000
http://10.rarbg.com/scrape 000
http://gemini.tracker.prq.to/scrape000
http://tracker.jamendo.com/scrape000
http://pow7.com:80/scrape000
http://bt.rghost.net:80/scrape000
http://tracker.blazing.de:80/scrape000
http://tracker.pow7.com:80/scrape000
http://t2.pow7.com/scrape000
http://tracker.prq.to:80/scrape000
http://tracker.token.ro:80/scrape000
http://t1.pow7.com:80/scrape000
http://10.rarbg.com:80/scrape000
Report this torrent
We will carefully monitor this report and react whenever possible.
Thanks for helping us in filtering out bad content and improving TorrentReactor for every other visitor!
Please login or register to be able to report torrents.

Your comment

Please Login or register to be able to add comments.

All comments

No one has added a comment yet. Be the first one.

Related torrents

Snow White and the Huntsman 2012 DVDRip XviD MAX, related to Snow White and the Huntsman 2012 DVDRip XviD MAX