Sur la piste du Marsupilami 2012 FRENCH DVDRiP XviD WBZ

Sur la piste du Marsupilami 2012 FRENCH DVDRiP XviD WBZ

Total size: 700.34 Mb
Removed by the request of copyright owner

Sur.la.piste.du.Marsupilami.2012.FRENCH.DVDRiP.XviD-WBZFormat : AVIFormat/Info : Audio Video InterleaveFormat profile : OpenDMLFile size : 699 MiBDuration : 1h 45mnOverall bit rate : 1 052 KbpsWriting application : VirtualDubMod 1.5.10.2 (build 2542/release)Writing library : VirtualDubMod build 2542/releaseVideoID : 0Format : MPEG-4 VisualFormat profile : AdvancedSimple@L5Format settings, BVOP : YesFormat settings, QPel : NoFormat settings, GMC : No warppointsFormat settings, Matrix : Default (MPEG)Codec ID : XVIDCodec ID/Hint : XviDDuration : 1h 45mnBit rate : 942 KbpsWidth : 640 pixelsHeight : 272 pixelsDisplay aspect ratio : 2.35:1Frame rate : 23.976 fpsResolution : 24 bitsColorimetry : 4:2:0Scan type : ProgressiveBits/(Pixel*Frame) : 0.271Stream size : 669 MiB (78%)Writing library : XviD 1.2.1 (UTC 2008-12-04)AudioID : 1Format : AC-3Format/Info : Audio Coding 3Codec ID : 2000Duration : 1h 45mnBit rate mode : ConstantBit rate : 128 KbpsChannel(s) : 2 channelsChannel positions : Front: L  RSampling rate : 48.0 KHzStream size : 30 MiB (22%)Alignment : Aligned on interleavesInterleave, duration : 64 ms (1.53 video frames)Interleave, preload duration : 192 msSource: DVD (perfect a/v/sync quality,sample included)This torrent is not seedbox supported,please seed it.
FileSize
Sample/screenshot01.png362.71 Kb
Sample/screenshot02.png416.19 Kb
Sample/screenshot03.png424.29 Kb
Sample/Sur la piste du Marsupilami affiche.jpg171.27 Kb
Sur.la.piste.du.Marsupilami.2012.FRENCH.DVDRiP.XviD-WBZ.nfo1.46 Kb
Sur.la.piste.du.Marsupilami.2012.FRENCH.DVDRiP.XviD-WBZ/Sur.la.piste.du.Marsupilami.2012.FRENCH.DVDRiP.XviD-WBZ.rar699.00 Mb
TrackerSeedsLeechsDownloaded
http://exodus.desync.com:6969/scrape000
http://cpleft.com:2710/scrape000
http://tracker.ccc.de:80000
http://secure.pow7.com/scrape000
http://tracker.openbittorrent.com:80000
http://tracker.publicbt.com:80000
http://tracker.novalayer.org:6969/scrape000
http://t1.pow7.com/scrape000
http://inferno.demonoid.me:3409/scrape000
http://luckybittorrent.com:2710/scrape000
http://10.rarbg.com/scrape000
http://pow7.com/scrape000
http://tracker.openbittorrent.com/scrape000
http://tracker.zond.org/scrape000
http://tracker.torrentbox.com:2710/scrape000
http://tracker.publicbt.com/scrape000
http://tracker.torrentbay.to:6969/scrape000
Search for full movies Sur la piste du Marsupilami 2012 FRENCH DVDRiP XviD WBZ, related to Sur la piste du Marsupilami 2012 FRENCH DVDRiP XviD WBZ