What to Expect When You re Expecting 2012 BRRip XviD ETRG

What to Expect When You re Expecting 2012 BRRip XviD ETRG

Total size: 874.86 Mb
Removed by the request of copyright owner

  • Category
  • Added
    on 2012-05-21 02:09:37
  • Hash
    ab69d49accdc747911456711ff78a0166260e9d7
Format                           : AVIFormat/Info                      : Audio Video InterleaveFormat profile                   : OpenDMLFile size                        : 1.68 GiBDuration                         : 1h 57mnOverall bit rate                 : 2 049 KbpsWriting application              : VirtualDubMod 1.5.10.2 (build 2542/release)Writing library                  : VirtualDubMod build 2542/releaseOriginal source form             : MAX TORRENTZCopyright                        : SIGISMUNTVideoID                               : 0Format                           : MPEG-4 VisualFormat profile                   : AdvancedSimple@L5Format settings, BVOP            : YesFormat settings, QPel            : NoFormat settings, GMC             : No warppointsFormat settings, Matrix          : CustomCodec ID                         : XVIDCodec ID/Hint                    : XviDDuration                         : 1h 57mnBit rate                         : 1 862 KbpsWidth                            : 720 pixelsHeight                           : 304 pixelsDisplay aspect ratio             : 2.35:1Frame rate                       : 23.976 fpsResolution                       : 24 bitsColorimetry                      : 4:2:0Scan type                        : ProgressiveBits/(Pixel*Frame)               : 0.355Stream size                      : 1.52 GiB (91%)Writing library                  : XviD 1.2.0.dev47 (UTC 2006-11-01)AudioID                               : 1Format                           : AC-3Format/Info                      : Audio Coding 3Codec ID                         : 2000Duration                         : 1h 57mnBit rate mode                    : ConstantBit rate                         : 192 KbpsChannel(s)                       : 2 channelsChannel positions                : L RSampling rate                    : 48.0 KHzStream size                      : 152 MiB (9%)Alignment                        : Aligned on interleavesInterleave, duration             : 68 ms (1.62 video frames)Interleave, preload duration     : 192 msSource: DVD (perfect a/v/sync good quality,sample included)This torrent is not seedbox supported,please seed it,
FileSize
What to Expect When You're Expecting[2012]BRRip XviD-ETRG/MPP-ETRG.nfo2.81 Kb
What to Expect When You're Expecting[2012]BRRip XviD-ETRG/What to Expect When You're Expecting[2012]BRRip XviD-ETRG.avi874.86 Mb
TrackerSeedsLeechsDownloaded
http://000
http://exodus.desync.com:6969/scrape2133
http://fr33dom.h33t.com:3310/scrape102
http://www.h33t.com:3310/scrape113
http://red.tracker.prq.to/scrape000
http://the.illusionist.tracker.prq.to/scrape000
http://tpb.tracker.prq.to/scrape000
http://tracker.zond.org/scrape000
http://tv.tracker.prq.to/scrape.php000
http://tracker.publicbits.com/scrape000
http://vip.tracker.prq.to/scrape000
http://tracker.publicbt.com//scrape000
http://vtv.tv.tracker.prq.to/scrape.php000
http://tracker.ilibr.org/scrape000
http://exodus.desync.com:6969/scrapeexodus.desync.com:6969/scrape000
http://tracker.publicbt.com/scrape000
Search for full music What to Expect When You re Expecting 2012 BRRip XviD ETRG, related to What to Expect When You re Expecting 2012 BRRip XviD ETRG