Dupa dealuri 2012 FRENCH DVDRip XviD MAX

Dupa dealuri 2012 FRENCH DVDRip XviD MAX

Total size: 699.01 Mb
Removed by the request of copyright owner

Dupa dealuri (2012)FRENCH DVDRip XviD - MAX
Format : AVI
Format/Info : Audio Video Interleave
Format profile : OpenDML
File size : 699 MiB
Duration : 2h 00mn
Overall bit rate : 1 052 Kbps
Writing application : VirtualDubMod 1.5.10.2 (build 2542/release)
Writing library : VirtualDubMod build 2542/release
Video
ID : 0
Format : MPEG-4 Visual
Format profile : AdvancedSimple@L5
Format settings, BVOP : Yes
Format settings, QPel : No
Format settings, GMC : No warppoints
Format settings, Matrix : Default (MPEG)
Codec ID : XVID
Codec ID/Hint : XviD
Duration : 2h 00mn
Bit rate : 942 Kbps
Width : 640 pixels
Height : 272 pixels
Display aspect ratio : 2.35:1
Frame rate : 23.976 fps
Resolution : 24 bits
Colorimetry : 4:2:0
Scan type : Progressive
Bits/(Pixel*Frame) : 0.271
Stream size : 669 MiB (78%)
Writing library : XviD 1.2.1 (UTC 2008-12-04)
Audio
ID : 1
Format : AC-3
Format/Info : Audio Coding 3
Codec ID : 2000
Duration : 2h 00mn
Bit rate mode : Constant
Bit rate : 128 Kbps
Channel(s) : 2 channels
Channel positions : Front: L  R
Sampling rate : 48.0 KHz
Stream size : 30 MiB (22%)
Alignment : Aligned on interleaves
Interleave, duration : 64 ms (1.53 video frames)
Interleave, preload duration : 192 ms
Source: DVD (perfect a/v/sync quality,sample included)


This torrent is not seedbox supported,please seed it.
............................................................
............................................................
FileSize
Dupa dealuri (2012)FRENCH DVDRip XviD - MAX/cover.jpg3.39 Kb
Dupa dealuri (2012)FRENCH DVDRip XviD - MAX/Dupa dealuri (2012)FRENCH DVDRip XviD - MAX.nfo1.46 Kb
Dupa dealuri (2012)FRENCH DVDRip XviD - MAX/Dupa dealuri (2012)FRENCH DVDRip XviD - MAX/Dupa dealuri (2012)FRENCH DVDRip XviD - MAX.rar699.00 Mb
Dupa dealuri (2012)FRENCH DVDRip XviD - MAX/screenshot1.jpg4.36 Kb
TrackerSeedsLeechsDownloaded
http://exodus.desync.com:6969/scrape000
http://cpleft.com:2710/scrape000
http://secure.pow7.com/scrape000
http://tracker.openbittorrent.com:80000
http://tracker.publicbt.com:80000
http://tracker.novalayer.org:6969/scrape000
http://t1.pow7.com/scrape000
http://inferno.demonoid.me:3409/scrape000
http://luckybittorrent.com:2710/scrape000
http://tracker.openbittorrent.com/scrape000
http://10.rarbg.com/scrape000
http://pow7.com/scrape000
http://tracker.torrentbox.com:2710/scrape000
http://tracker.zond.org/scrape000
http://tracker.torrentbay.to:6969/scrape000
http://tracker.ccc.de:80000
http://tracker.thepiratebay.org/scrape000
Search for full movies Dupa dealuri 2012 FRENCH DVDRip XviD MAX, related to Dupa dealuri 2012 FRENCH DVDRip XviD MAX