Download The Hunger Games 2012 DVDRip XviD AC3 26K torrent torrent

Fake torrent

The Hunger Games 2012 DVDRip XviD AC3 26K torrent torrent

Total size: 628.00 Mb Seeds 0 Leechs 0
The Hunger Games 2012 DVDRip XviD AC3 26K torrent
[code]
2011 DVDRip XviD AC3-26K


Sources:
DVDR

Notes:
Encoded the video added a few filters to make it look nice :)


Greetz:
To all the people who have helped me :P you know who you are

Anything to offer email us @: 26k@hushmail.me

Video
ID                                       : 0
Format                                   : MPEG-4 Visual
Format profile                           : Advanced Simple@L5
Format settings, BVOP                    : 2
Format settings, QPel                    : No
Format settings, GMC                     : No warppoints
Format settings, Matrix                  : Default (H.263)
Muxing mode                              : Packed bitstream
Codec ID                                 : XVID
Codec ID/Hint                            : XviD
Duration                                 : 1h 32mn
Bit rate                                 : 2 295 Kbps
Width                                    : 720 pixels
Height                                   : 388 pixels
Display aspect ratio                     : 1.856
Frame rate                               : 25.000 fps
Color space                              : YUV
Chroma subsampling                       : 4:2:0
Bit depth                                : 8 bits
Scan type                                : Progressive
Compression mode                         : Lossy
Bits/(Pixel*Frame)                       : 0.329
Stream size                              : 1.49 GiB (83%)
Writing library                          : XviD 1.2.1 (UTC 2008-12-04)

Audio
ID                                       : 1
Format                                   : AC-3
Format/Info                              : Audio Coding 3
Mode extension                           : CM (complete main)
Codec ID                                 : 2000
Duration                                 : 1h 32mn
Bit rate mode                            : Constant
Bit rate                                 : 448 Kbps
Channel(s)                               : 6 channels
Channel positions                        : Front: L C R, Side: L R, LFE
Sampling rate                            : 48.0 KHz
Bit depth                                : 16 bits
Compression mode                         : Lossy
Stream size                              : 298 MiB (16%)
Alignment                                : Aligned on interleaves
Interleave, duration                     : 32 ms (0.80 video frame)
Interleave, preload duration             : 32 ms


[/code]

Thank you smallz for banner!
FileSize
The Hunger Games 2012 DVDRip XviD AC3-26K/2012 DVDRip XviD AC3-26K.nfo2.50 Kb
The Hunger Games 2012 DVDRip XviD AC3-26K/Subs ENG.srt80.95 Kb
The Hunger Games 2012 DVDRip XviD AC3-26K/The Hunger Games 2012 DVDRip XviD AC3-26K.avi627.92 Mb
The Hunger Games 2012 DVDRip XviD AC3-26K/Torrent downloaded from Demonoid.me.txt46.00 b
The Hunger Games 2012 DVDRip XviD AC3-26K/Torrent downloaded from extratorrent.com.txt85.00 b
TrackerSeedsLeechsDownloaded
http://000
http://10.rarbg.com/scrape000
http://pow7.com/scrape000
http://exodus.desync.com:6969/scrape000
http://tracker.torrentbay.to:6969/scrape000
Report this torrent
We will carefully monitor this report and react whenever possible.
Thanks for helping us in filtering out bad content and improving TorrentReactor for every other visitor!
Please login or register to be able to report torrents.

Your comment

Please Login or register to be able to add comments.

All comments

No one has added a comment yet. Be the first one.

Related torrents

The Hunger Games 2012 DVDRip XviD AC3 26K torrent, related to The Hunger Games 2012 DVDRip XviD AC3 26K torrent