The Dictator 2012 DvDRip XviD Feel Free

The Dictator 2012 DvDRip XviD Feel Free

Total size: 971.78 Mb
Removed by the request of copyright owner

Format                           : AVI
Format/Info                      : Audio Video Interleave
Format profile                   : OpenDML
File size                        : 971 MiB
Duration                         : 1h 49mn
Overall bit rate                 : 1 714 Kbps
Writing application              : VirtualDubMod 1.5.10.2 (build 2542/release)
Writing library                  : VirtualDubMod build 2542/release
Original source form             : MAX TORRENTZ

Video
ID                               : 0
Format                           : MPEG-4 Visual
Format profile                   : AdvancedSimple@L5
Format settings, BVOP            : Yes
Format settings, QPel            : No
Format settings, GMC             : No warppoints
Format settings, Matrix          : Default (H.263)
Codec ID                         : XVID
Codec ID/Hint                    : XviD
Duration                         : 1h 49mn
Bit rate                         : 1 325 Kbps
Width                            : 640 pixels
Height                           : 272 pixels
Display aspect ratio             : 2.35:1
Frame rate                       : 23.976 fps
Resolution                       : 24 bits
Colorimetry                      : 4:2:0
Scan type                        : Progressive
Bits/(Pixel*Frame)               : 0.318
Stream size                      : 971 MiB (77%)
Writing library                  : XviD 61

Audio
ID                               : 1
Format                           : AC-3
Format/Info                      : Audio Coding 3
Codec ID                         : 2000
Duration                         : 1h 49mn
Bit rate mode                    : Constant
Bit rate                         : 384 Kbps
Channel(s)                       : 6 channels
Channel positions                : Front: L C R, Surround: L R, LFE
Sampling rate                    : 48.0 KHz
Stream size                      : 147 MiB (22%)
Alignment                        : Aligned on interleaves
Interleave, duration             : 64 ms (1.54 video frames)
Interleave, preload duration     : 192 ms


The Dictator (2012)


http://www.imdb.com/title/tt1645170/



How To Get Your Maxspeed (uTorrent)

Torrent Client - Preferences - Bandwidth - Number of connections - Set aprox. 500 for 

each 
Torrent Client - Preferences - BiTorrent - Protocol Encryption - Forced
Bandwidth Allocation - High (Set download/upload limit - Unlimited)
Stop Other Active Torrents - Start downloading and wait for connections.
Enjoy and Seed for at least 1:1 ratio. Don't forget to say thanks/leave reviews.
Before downloading you should check/google search sample "release name""sample".
Greets to all actual/future p2p/scene QUALITY groups and affiliate websites.
Don't trust IMDb robot or bad ratings,always watch some trailers first.
Ignore stupid comments/fake/mislabeled/no-DVDrips/CAM/TS/RAR uploads.
Please spread this release/torrent to your friends/forums/etc.
If you need translation subs visit some subtitles sites.
Report if you see online streaming or other spam links.
Recommended movie player VLC PLAYER.

FileSize
The Dictator (2012) DvDRip.XviD.Feel-Free/Release.nfo9.89 Kb
The Dictator (2012) DvDRip.XviD.Feel-Free/sample.avi43.78 Mb
The Dictator (2012) DvDRip.XviD.Feel-Free/Subs[ENG].srt133.49 Kb
The Dictator (2012) DvDRip.XviD.Feel-Free/The Dictator (2012) DvDRip.XviD.Feel-Free.avi927.86 Mb
The Dictator (2012) DvDRip.XviD.Feel-Free/Torrent downloaded from Demonoid.me.txt46.00 b
The Dictator (2012) DvDRip.XviD.Feel-Free/Torrent downloaded from Extratorrent.com.txt40.00 b
The Dictator (2012) DvDRip.XviD.Feel-Free/Torrent downloaded from h33t.com.txt32.00 b
TrackerSeedsLeechsDownloaded
http://000
http://tracker.torrentbay.to:6969/scrape000
http://bigtorrent.org:2710/scrape0048
http://inferno.demonoid.com:3414/scrape000
http://tracker.yify-torrents.com/scrape010
http://tracker.openbittorrent.com/scrape000
http://pow7.com/scrape000
http://tracker.publicbt.com/scrape000
http://10.rarbg.com/scrape000
Search for full movies The Dictator 2012 DVDRip x264 AC3 FORGiVEN, related to The Dictator 2012 DVDRip x264 AC3 FORGiVEN