The Cabin in The Woods 2012 BRRip XviD ETRG torrent

The Cabin in The Woods 2012 BRRip XviD ETRG torrent

Total size: 674.12 Mb
Removed by the request of copyright owner

The Cabin in The Woods 2012 BRRip XviD ETRG torrent
Format                                   : MgB
Format profile                           : Base Media / Version 2
Codec ID                                 : mp42
Duration                                 : 2h 2mn
Overall bit rate mode                    : Variable
Overall bit rate                         : 2 306 Kbps
Encoded date                             : UTC 2012-04-15 18:52:04
Tagged date                              : UTC 2012-04-15 19:52:04
Writing application                      : HandBrake 0.9.6 2012022800

Video
ID                                       : 1
Format                                   : AVC
Format/Info                              : Advanced Video Codec
Format profile                           : High@L2.2
Format settings, CABAC                   : Yes
Format settings, ReFrames                : 4 frames
Codec ID                                 : avc1
Codec ID/Info                            : Advanced Video Coding
Duration                                 : 2h 2mn
Bit rate mode                            : Variable
Bit rate                                 : 1 500 Kbps
Width                                    : 720 pixels
Height                                   : 288 pixels
Display aspect ratio                     : 2.500
Frame rate mode                          : Variable
Frame rate                               : 25.000 fps
Minimum frame rate                       : 16.667 fps
Maximum frame rate                       : 25.000 fps
Color space                              : YUV
Chroma subsampling                       : 4:2:0
Bit depth                                : 8 bits
Scan type                                : Progressive
Bits/(Pixel*Frame)                       : 0.289
Stream size                              : 1.28 GiB (65%)
Writing library                          : x264 core 120
Encoded date                             : UTC 2012-04-15 18:52:04
Tagged date                              : UTC 2012-04-15 19:52:04
Color primaries                          : BT.601-6 525, BT.1358 525, BT.1700 NTSC, SMPTE 170M
Transfer characteristics                 : BT.709-5, BT.1361
Matrix coefficients                      : BT.601-6 525, BT.1358 525, BT.1700 NTSC, SMPTE 170M

Audio #1
ID                                       : 2
Format                                   : AAC
Format/Info                              : Advanced Audio Codec
Format profile                           : LC
Codec ID                                 : 40
Duration                                 : 2h 2mn
Bit rate mode                            : Variable
Bit rate                                 : 160 Kbps
Maximum bit rate                         : 184 Kbps
Channel(s)                               : 2 channels
Channel positions                        : Front: L R
Sampling rate                            : 44.1 KHz
Compression mode                         : Lossy
Stream size                              : 140 MiB (7%)
Encoded date                             : UTC 2012-04-15 18:52:04
Tagged date                              : UTC 2012-04-15 19:52:04

Audio #2
ID                                       : 3
Format                                   : AC-3
Format/Info                              : Audio Coding 3
Mode extension                           : CM (complete main)
Codec ID                                 : ac-3
Duration                                 : 2h 2mn
Bit rate mode                            : Constant
Bit rate                                 : 640 Kbps
Channel(s)                               : 2 channels
Channel positions                        : Front: L R
Sampling rate                            : 44.1 KHz
Bit depth                                : 16 bits
Compression mode                         : Lossy
Stream size                              : 560 MiB (28%)
Encoded date                             : UTC 2012-04-15 18:52:04
Tagged date                              : UTC 2012-04-15 19:52:04
FileSize
The Cabin in The Woods [2012]BRRip XviD-ETRG/ETRG.nfo6.75 Kb
The Cabin in The Woods [2012]BRRip XviD-ETRG/ExtraTorrentRG.mp41.45 Mb
The Cabin in The Woods [2012]BRRip XviD-ETRG/The Cabin in The Woods [2012]BRRip XviD-ETRG.avi672.67 Mb
The Cabin in The Woods [2012]BRRip XviD-ETRG/Torrent Seeded & Tracked by Novalayer.com.txt167.00 b
The Cabin in The Woods [2012]BRRip XviD-ETRG/Torrent downloaded from extratorrent.com.txt85.00 b
TrackerSeedsLeechsDownloaded
http://000
http://exodus.desync.com:6969/scrape000
http://tracker.torrentbay.to:6969/scrape000
http://10.rarbg.com/scrape000
http://pow7.com/scrape000
Search for full movies The Cabin In The Woods 2011 720p BRRip x264 x0r, related to The Cabin In The Woods 2011 720p BRRip x264 x0r