Fake torrent

Dark Shadows (2012) Hindi 2012 DVDRip XviD QTSi torrent

Total size: 856.71 Mb Seeds 0 Leechs 0
Dark Shadows (2012) Hindi 2012 DVDRip XviD QTSiFormat                                   : AVIFormat/Info                              : Audio Video InterleaveFile size                                : 850 MBDuration                                 : 2h 7mnOverall bit rate                         : 874 KbpsWriting application                      : VirtualDubMod 1.5.10.2 (build 2542/release)Writing library                          : VirtualDubMod build 2542/releaseVideo:ID                                       : 0Format                                   : MPEG-4 VisualFormat profile                           : Advanced Simple@L5Format settings, BVOP                    : 1Format settings, QPel                    : NoFormat settings, GMC                     : No warppointsFormat settings, Matrix                  : Default (H.263)Muxing mode                              : Packed bitstreamCodec ID                                 : XVIDCodec ID/Hint                            : XviDDuration                                 : 2h 7mnBit rate                                 : 737 KbpsWidth                                    : 704 pixelsHeight                                   : 296 pixelsDisplay aspect ratio                     : 2.40:1Frame rate                               : 23.976 fpsColor space                              : YUVChroma subsampling                       : 4:2:0Bit depth                                : 8 bitsScan type                                : ProgressiveCompression mode                         : LossyBits/(Pixel*Frame)                       : 0.147Stream size                              : 700 MiB (84%)Writing library                          : XviD 62Audio:ID                                       : 1Format                                   : MPEG AudioFormat version                           : Version 1Format profile                           : Layer 3Mode                                     : Joint stereoMode extension                           : MS StereoCodec ID                                 : 55Codec ID/Hint                            : MP3Duration                                 : 2h 7mnBit rate mode                            : ConstantBit rate                                 : 128 KbpsChannel(s)                               : 2 channelsSampling rate                            : 44.1 KHzCompression mode                         : LossyStream size                              : 82.6 MiB (15%)Alignment                                : Split accross interleavesInterleave, duration                     : 42 ms (1.00 video frame)Interleave, preload duration             : 500 msWriting library                          : LAME3.98.2
FileSize
Dark Shadows (2012) Hindi 2012 DVDRip XviD QTSi/Dark Shadows (2012) Hindi 2012 DVDRip XviD QTSi.avi853.86 Mb
Dark Shadows (2012) Hindi 2012 DVDRip XviD QTSi/MPP-ETRG.nfo2.81 Kb
Dark Shadows (2012) Hindi 2012 DVDRip XviD QTSi/Torrent downloaded from Demonoid.me.txt46.00 b
Dark Shadows (2012) Hindi 2012 DVDRip XviD QTSi/Torrent downloaded from Extratorrent.com.txt40.00 b
Dark Shadows (2012) Hindi 2012 DVDRip XviD QTSi/Torrent downloaded from Rarbg.com.txt33.00 b
Dark Shadows (2012) Hindi 2012 DVDRip XviD QTSi/Torrent downloaded from h33t.com.txt32.00 b
Dark Shadows (2012) Hindi 2012 DVDRip XviD QTSi/sample2.86 Mb
TrackerSeedsLeechsDownloaded
udp://tracker.openbittorrent.com:80/scrape000
udp://tracker.publicbt.com:80/scrape000
http://fr33dom.h33t.com:3310/scrape000
http://www.deviloid.net:55000/scrape000
http://exodus.desync.com:6969/scrape000
http://tracker.prq.to/scrape000
Report this torrent
We will carefully monitor this report and react whenever possible.
Thanks for helping us in filtering out bad content and improving TorrentReactor for every other visitor!
Please login or register to be able to report torrents.

Your comment
Please Login or register to be able to add comments.
All comments

No one has added a comment yet. Be the first one.

Related torrents
Dark Shadows (2012) Hindi 2012 DVDRip XviD QTSi, related to Dark Shadows (2012) Hindi 2012 DVDRip XviD QTSi