The Hunger Games 2012 Italian DVDRip torrent

The Hunger Games 2012 Italian DVDRip torrent

Total size: 1.47 Gb
Removed by the request of copyright owner

The Hunger Games 2012 Italian DVDRip torrent
  • Category
  • Added
    on 2012-05-03 08:16:40
  • Hash
    6051e60275987fd24d132b124acf16e04e05f1da
Set in a future where the Capitol selects a boy and girl from the twelve districts to fight to the death on live television, Katniss Everdeen volunteers to take her younger sister's place for the latest match.

Director:
               Gary Ross
Writers:
               Gary Ross
Stars:
              Jennifer Lawrence, Josh Hutcherson and Liam Hemsworth
Genre:
               Action | Drama | Sci-Fi



The Hunger Games (2012) [Italian DVDRip]
Format                           : AVI
Format/Info                      : Audio Video Interleave
Format profile                   : OpenDML
File size                        : 1.46 GiB
Duration                         : 142 min
Overall bit rate                 : 1 456 Kbps
Writing application              : VirtualDubMod 1.5.10.2 (build 2542/release)
Writing library                  : VirtualDubMod build 2542/release
Original source form             : MAX TORRENTZ
Copyright                        : SIGISMUNT

Video
ID                               : 0
Format                           : MPEG-4 Visual
Format profile                   : AdvancedSimple@L5
Format settings, BVOP            : Yes
Format settings, QPel            : No
Format settings, GMC             : No warppoints
Format settings, Matrix          : Default (MPEG)
Codec ID                         : XVID
Codec ID/Hint                    : XviD
Duration                         : 2h 8mn
Bit rate                         : 1 131 Kbps
Width                            : 640 pixels
Height                           : 272 pixels
Display aspect ratio             : 2.35:1
Frame rate                       : 23.976 fps
Resolution                       : 24 bits
Colorimetry                      : 4:2:0
Scan type                        : Progressive
Bits/(Pixel*Frame)               : 0.271
Stream size                      : 1.02 GiB (78%)
Writing library                  : XviD 1.2.1 (UTC 2008-12-04)

Audio
ID                               : 1
Format                           : AC-3
Format/Info                      : Audio Coding 3
Codec ID                         : 2000
Duration                         : 122 min
Bit rate mode                    : Constant
Bit rate                         : 320 Kbps
Channel(s)                       : 6 channels
Channel positions                : Front: L C R, Surround: L R, LFE
Sampling rate                    : 48.0 KHz
Stream size                      : 295 MiB (22%)
Alignment                        : Aligned on interleaves
Interleave, duration             : 64 ms (1.53 video frames)
Interleave, preload duration     : 192 ms

http://www.imdb.com/title/tt1392170/

Source: DVD (perfect a/v/sync quality,sample included)
This torrent is not seedbox supported,please seed it to the MAX
Note: We need anything you can offer as early releases,seedboxes,links,accounts,etc
please contact us on piratepedia[@]msn/gmail.com or our website torentz 3xforum ro
FileSize
The Hunger Games (2012) [Italian DVDRip]/Subs[ENG].srt133.49 Kb
The Hunger Games (2012) [Italian DVDRip]/The Hunger Games (2012) [Italian DVDRip].avi1.46 Gb
The Hunger Games (2012) [Italian DVDRip]/The Hunger Games (2012) [Italian DVDRip].nfo4.74 Kb
The Hunger Games (2012) [Italian DVDRip]/Torrent downloaded from Rarbg.com.txt22.00 b
The Hunger Games (2012) [Italian DVDRip]/Torrent_downloaded_from_Extratorrent_Com.txt42.00 b
The Hunger Games (2012) [Italian DVDRip]/the-hunger-games-movie.jpg255.34 Kb
TrackerSeedsLeechsDownloaded
http://inferno.demonoid.me:3414/scrape000
http://000
http://tracker.openbittorrent.com/scrape000
http://retracker.hotplug.ru:2710/scrape000
http://11.rarbg.com/scrape000
http://scrape.torrentsmd.com:6969/scrape000
http://tracker.ipv6tracker.org/scrape000
http://tracker.publicbt.org/scrape000
http://ipv6.tracker.harry.lu/scrape000
http://tracker.csze.com/scrape000
http://fr33dom.h33t.com:3310/scrape0212
http://tracker.publicbt.com/scrape000
http://tracker.etree.org:6969/scrape000
http://a.tv.tracker.prq.to/scrape000
http://tracker.prq.to:6969/scrape000
http://tracker.ilibr.org:6969/scrape000
http://10.rarbg.com/scrape000
http://10.rarbg.com/scrape 000
http://gemini.tracker.prq.to/scrape000
http://tracker.jamendo.com/scrape000
http://pow7.com/scrape000
http://bt.rghost.net/scrape000
http://tracker.ilibr.org/scrape000
http://tracker.pow7.com/scrape000
http://t2.pow7.com/scrape000
http://tracker.prq.to/scrape000
http://tracker.token.ro/scrape000
http://t1.pow7.com/scrape000
http://tracker.yify-torrents.com/scrape000
http://tracker.1337x.org/scrape000
http://exodus.desync.com:6969/scrape000
http://tracker.istole.it/scrape000
http://exodus.desync.com/scrape000
http://exodus.desync.com/scrape1000
http://ipv4.tracker.harry.lu/scrape000
http://9.rarbg.com:2710/scrape000
http://tracker.blazing.de/scrape000
http://tracker.ccc.de/scrape000
http://tracker.ccc.de:80000
Search for full movies The Hunger Games Mockingjay Part 1 2014 CAMRip RUSSIAN, related to The Hunger Games Mockingjay Part 1 2014 CAMRip RUSSIAN