Download The Five-Year Engagement (2012) DVDRip.torrent torrent

Fake torrent

The Five-Year Engagement (2012) DVDRip.torrent torrent

Total size: 1.36 Gb Seeds 0 Leechs 0
The Five-Year Engagement (2012) DVDRip.torrent
One year after meeting, Tom proposes to his girlfriend, Violet, but unexpected events keep 

tripping them up as they look to walk down the aisle together.


Director:
               Nicholas Stoller
Writers:
               Jason Segel
Stars:
              Jason Segel, Emily Blunt and Chris Pratt
Genre:
              Comedy | Romance

#####################################################################

The Five-Year Engagement (2012) DVDRip.torrent
Format                           : AVI
Format/Info                      : Audio Video Interleave
Format profile                   : OpenDML
File size                        : 1.33 GiB
Duration                         : 2h 8mn
Overall bit rate                 : 1 456 Kbps
Writing application              : VirtualDubMod 1.5.10.2 (build 2542/release)
Writing library                  : VirtualDubMod build 2542/release
Original source form             : MAX TORRENTZ
Copyright                        : SIGISMUNT

Video
ID                               : 0
Format                           : MPEG-4 Visual
Format profile                   : AdvancedSimple@L5
Format settings, BVOP            : Yes
Format settings, QPel            : No
Format settings, GMC             : No warppoints
Format settings, Matrix          : Default (MPEG)
Codec ID                         : XVID
Codec ID/Hint                    : XviD
Duration                         : 2h 8mn
Bit rate                         : 1 131 Kbps
Width                            : 640 pixels
Height                           : 272 pixels
Display aspect ratio             : 2.35:1
Frame rate                       : 23.976 fps
Resolution                       : 24 bits
Colorimetry                      : 4:2:0
Scan type                        : Progressive
Bits/(Pixel*Frame)               : 0.271
Stream size                      : 1.02 GiB (78%)
Writing library                  : XviD 1.2.1 (UTC 2008-12-04)

Audio
ID                               : 1
Format                           : AC-3
Format/Info                      : Audio Coding 3
Codec ID                         : 2000
Duration                         : 2h 8mn
Bit rate mode                    : Constant
Bit rate                         : 320 Kbps
Channel(s)                       : 6 channels
Channel positions                : Front: L C R, Surround: L R, LFE
Sampling rate                    : 48.0 KHz
Stream size                      : 295 MiB (22%)
Alignment                        : Aligned on interleaves
Interleave, duration             : 64 ms (1.53 video frames)
Interleave, preload duration     : 192 ms

http://www.imdb.com/title/tt1195478/

Source: DVD (perfect a/v/sync quality,sample included)
This torrent is not seedbox supported,please seed it to the MAX
Note: We need anything you can offer as early releases,seedboxes,links,accounts,etc
please contact us on piratepedia[@]msn/gmail.com or our website torentz 3xforum ro
FileSize
The Five-Year Engagement (2012) DVDRip/Subs[ENG].srt133.49 Kb
The Five-Year Engagement (2012) DVDRip/The Five-Year Engagement (2012) DVDRip.avi1.36 Gb
The Five-Year Engagement (2012) DVDRip/The Five-Year Engagement (2012) DVDRip.nfo4.74 Kb
The Five-Year Engagement (2012) DVDRip/Torrent downloaded from Rarbg.com.txt22.00 b
The Five-Year Engagement (2012) DVDRip/Torrent_downloaded_from_Extratorrent_Com.txt42.00 b
The Five-Year Engagement (2012) DVDRip/the-five-year-engagement.jpg130.16 Kb
TrackerSeedsLeechsDownloaded
udp://tracker.yify-torrents.com/scrape000
udp://exodus.desync.com:6969/scrape000
udp://tracker.openbittorrent.com:80/scrape000
udp://tracker.istole.it:80/scrape000
udp://9.rarbg.com:2710/scrape000
udp://10.rarbg.com/scrape000
udp://11.rarbg.com/scrape000
http://retracker.hotplug.ru:2710/scrape000
http://fr33dom.h33t.com:3310/scrape000
http://scrape.torrentsmd.com:6969/scrape000
http://tracker.ipv6tracker.org/scrape000
http://tracker.publicbt.org:80/scrape000
http://ipv6.tracker.harry.lu/scrape000
http://inferno.demonoid.me:3414/scrape000
http://tracker.csze.com:80/scrape000
http://tracker.blazing.de:80/scrape000
http://tracker.etree.org:6969/scrape000
http://exodus.desync.com:6969/scrape000
http://exodus.desync.com/scrape1000
http://tracker.yify-torrents.com/scrape000
http://tracker.publicbt.com:80/scrape000
http://a.tv.tracker.prq.to/scrape000
http://tracker.prq.to:6969/scrape000
http://tracker.ilibr.org:6969/scrape000
http://ipv4.tracker.harry.lu/scrape000
http://10.rarbg.com/scrape 000
http://gemini.tracker.prq.to/scrape000
http://tracker.jamendo.com/scrape000
http://pow7.com:80/scrape000
http://bt.rghost.net:80/scrape000
http://tracker.ilibr.org:80/scrape000
http://tracker.pow7.com:80/scrape000
http://t2.pow7.com/scrape000
http://tracker.prq.to:80/scrape000
http://tracker.token.ro:80/scrape000
http://t1.pow7.com:80/scrape000
http://10.rarbg.com:80/scrape000
http://exodus.desync.com/scrape000
Report this torrent
We will carefully monitor this report and react whenever possible.
Thanks for helping us in filtering out bad content and improving TorrentReactor for every other visitor!
Please login or register to be able to report torrents.

Your comment
Please Login or register to be able to add comments.
All comments

No one has added a comment yet. Be the first one.

Related torrents
The Five-Year Engagement (2012) DVDRip.torrent, related to The Five-Year Engagement (2012) DVDRip.torrent