Fake torrent

The Raven (2012 DVDRip XviD-DoNE- avi torrent

Total size: 894.12 Mb Seeds 0 Leechs 0
Format                           : AVI
Format/Info                      : Audio Video Interleave
Format profile                   : OpenDML
File size                        : 894 MiB
Duration                         : 1h 49mn
Overall bit rate                 : 1 714 Kbps
Writing application              : VirtualDubMod 1.5.10.2 (build 2542/release)
Writing library                  : VirtualDubMod build 2542/release
Original source form             : MAX TORRENTZ

Video
ID                               : 0
Format                           : MPEG-4 Visual
Format profile                   : AdvancedSimple@L5
Format settings, BVOP            : Yes
Format settings, QPel            : No
Format settings, GMC             : No warppoints
Format settings, Matrix          : Default (H.263)
Codec ID                         : XVID
Codec ID/Hint                    : XviD
Duration                         : 1h 49mn
Bit rate                         : 1 325 Kbps
Width                            : 640 pixels
Height                           : 272 pixels
Display aspect ratio             : 2.35:1
Frame rate                       : 23.976 fps
Resolution                       : 24 bits
Colorimetry                      : 4:2:0
Scan type                        : Progressive
Bits/(Pixel*Frame)               : 0.318
Stream size                      : 894 MiB (77%)
Writing library                  : XviD 61

Audio
ID                               : 1
Format                           : AC-3
Format/Info                      : Audio Coding 3
Codec ID                         : 2000
Duration                         : 1h 49mn
Bit rate mode                    : Constant
Bit rate                         : 384 Kbps
Channel(s)                       : 6 channels
Channel positions                : Front: L C R, Surround: L R, LFE
Sampling rate                    : 48.0 KHz
Stream size                      : 147 MiB (22%)
Alignment                        : Aligned on interleaves
Interleave, duration             : 64 ms (1.54 video frames)
Interleave, preload duration     : 192 ms


The Raven (2012)


http://www.imdb.com/title/tt1486192/



How To Get Your Maxspeed (uTorrent)

Torrent Client - Preferences - Bandwidth - Number of connections - Set aprox. 500 for each 
Torrent Client - Preferences - BiTorrent - Protocol Encryption - Forced
Bandwidth Allocation - High (Set download/upload limit - Unlimited)
Stop Other Active Torrents - Start downloading and wait for connections.
Enjoy and Seed for at least 1:1 ratio. Don't forget to say thanks/leave reviews.
Before downloading you should check/google search sample "release name""sample".
Greets to all actual/future p2p/scene QUALITY groups and affiliate websites.
Don't trust IMDb robot or bad ratings,always watch some trailers first.
Ignore stupid comments/fake/mislabeled/no-DVDrips/CAM/TS/RAR uploads.
Please spread this release/torrent to your friends/forums/etc.
If you need translation subs visit some subtitles sites.
Report if you see online streaming or other spam links.
Recommended movie player VLC PLAYER.

FileSize
The Raven (2012 DVDRip XviD-DoNE- avi/Release.nfo9.89 Kb
The Raven (2012 DVDRip XviD-DoNE- avi/The Raven (2012 DVDRip XviD-DoNE- avi.avi858.86 Mb
The Raven (2012 DVDRip XviD-DoNE- avi/Torrent downloaded from AhaShare.com.txt58.00 b
The Raven (2012 DVDRip XviD-DoNE- avi/Torrent downloaded from Demonoid.me.txt46.00 b
The Raven (2012 DVDRip XviD-DoNE- avi/Torrent downloaded from Extratorrent.com.txt40.00 b
The Raven (2012 DVDRip XviD-DoNE- avi/Torrent downloaded from h33t.com.txt32.00 b
The Raven (2012 DVDRip XviD-DoNE- avi/sample.avi35.26 Mb
TrackerSeedsLeechsDownloaded
udp://tracker.openbittorrent.com:80/scrape000
http://bigtorrent.org:2710/scrape000
http://inferno.demonoid.com:3414/scrape000
http://tracker.publicbt.com:80/scrape000
http://tracker.publicbt.com/scrape000
http://pow7.com/scrape000
http://10.rarbg.com/scrape000
http://tracker.yify-torrents.com/scrape000
http://tracker.torrentbay.to:6969/scrape000
Report this torrent
We will carefully monitor this report and react whenever possible.
Thanks for helping us in filtering out bad content and improving TorrentReactor for every other visitor!
Please login or register to be able to report torrents.

Your comment
Please Login or register to be able to add comments.
All comments

No one has added a comment yet. Be the first one.

Related torrents
The Raven (2012 DVDRip XviD-DoNE- avi, related to The Raven (2012 DVDRip XviD-DoNE- avi