Download The Hunger Games 2012 DVDRip torrent torrent

Fake torrent

The Hunger Games 2012 DVDRip torrent torrent

Total size: 1.02 Gb Seeds 0 Leechs 0
                           --latest--

                          100% working

|||/
          .-.________          (o o)             ________.-.
     ----/ _)_______)  +-oooO--(_)-----------+ (_______(_/ ----
        (    ()___)     |Please seed after    |    (___()    )
             ()__)      |                     |     (__()
     ----___()_)       |     download        |      (_()___/----
                        +------------Ooo------+		



The Hunger Games (2012) DVDRip.torrent
Format                           : AVI
Format/Info                      : Audio Video Interleave
Format profile                   : OpenDML
File size                        : 1.31 GiB
Duration                         : 1h 50mn
Overall bit rate                 : 1 698 Kbps
Writing application              : VirtualDubMod 1.5.10.2 (build 2542/release)
Writing library                  : VirtualDubMod build 2542/release
Original source form             : MAX TORRENTZ
Copyright                        : SIGISMUNT

Video
ID                               : 0
Format                           : MPEG-4 Visual
Format profile                   : AdvancedSimple@L5
Format settings, BVOP            : Yes
Format settings, QPel            : No
Format settings, GMC             : No warppoints
Format settings, Matrix          : Default (H.263)
Codec ID                         : XVID
Codec ID/Hint                    : XviD
Duration                         : 1h 50mn
Bit rate                         : 1 245 Kbps
Width                            : 720 pixels
Height                           : 384 pixels
Display aspect ratio             : 1.875
Frame rate                       : 23.976 fps
Resolution                       : 24 bits
Colorimetry                      : 4:2:0
Scan type                        : Progressive
Bits/(Pixel*Frame)               : 0.188
Stream size                      : 983 MiB (73%)
Writing library                  : XviD 1.2.1 (UTC 2008-12-04)

Audio
ID                               : 1
Format                           : AC-3
Format/Info                      : Audio Coding 3
Codec ID                         : 2000
Duration                         : 1h 50mn
Bit rate mode                    : Constant
Bit rate                         : 448 Kbps
Channel(s)                       : 6 channels
Channel positions                : Front: L C R, Surround: L R, LFE
Sampling rate                    : 48.0 KHz
Stream size                      : 354 MiB (26%)
Alignment                        : Aligned on interleaves
Interleave, duration             : 64 ms (1.53 video frames)
Interleave, preload duration     : 192 ms
 
http://www.imdb.com/title/tt1392170/

Source: DVD (perfect a/v/sync quality,sample included)
This torrent is not seedbox supported,please seed it to the MAX

Note: We need anything you can offer as early releases,seedboxes,links,accounts,etc
please contact us on piratepedia[@]msn/gmail.com or our website torentz 3xforum ro

The Hunger Games (2012) DVDRip.torrent Torrent Free download
 

How To Get Your Maxspeed (uTorrent)

Torrent Client - Preferences - Bandwidth - Number of connections - Set aprox. 500 for each 
Torrent Client - Preferences - BiTorrent - Protocol Encryption - Forced
Bandwidth Allocation - High (Set download/upload limit - Unlimited)
Stop Other Active Torrents - Start downloading and wait for connections.
Enjoy and Seed for at least 1:1 ratio. Don't forget to say thanks/leave reviews.
Before downloading you should check/google search sample "release name""sample".
Greets to all actual/future p2p/scene QUALITY groups and affiliate websites.
Don't trust IMDb robot or bad ratings,always watch some trailers first.
Ignore stupid comments/fake/mislabeled/no-DVDrips/CAM/TS/RAR uploads.
Please spread this release/torrent to your friends/forums/etc.
If you need translation subs visit some subtitles sites.
Report if you see online streaming or other spam links.
Recommended movie player VLC PLAYER.



                          ---EnjOy Watching Movie--- 
FileSize
The Hunger Games (2012) DVDRip/MOVIE.nfo4.74 Kb
The Hunger Games (2012) DVDRip/Subs[ENG].srt133.49 Kb
The Hunger Games (2012) DVDRip/The Hunger Games (2012) DVDRip.avi1.02 Gb
The Hunger Games (2012) DVDRip/Torrent downloaded from Rarbg.com.txt22.00 b
The Hunger Games (2012) DVDRip/Torrent_downloaded_from_Extratorrent_Com.txt42.00 b
TrackerSeedsLeechsDownloaded
udp://tracker.yify-torrents.com/scrape000
udp://exodus.desync.com:6969/scrape000
udp://tracker.openbittorrent.com:80/scrape000
udp://tracker.istole.it:80/scrape000
udp://9.rarbg.com:2710/scrape000
udp://10.rarbg.com/scrape000
udp://11.rarbg.com/scrape000
http://inferno.demonoid.me:3414/scrape000
http://exodus.desync.com:6969/scrape000
http://retracker.hotplug.ru:2710/scrape000
http://tracker.yify-torrents.com/scrape000
http://fr33dom.h33t.com:3310/scrape000
http://tracker.publicbt.com:80/scrape000
http://tracker.etree.org:6969/scrape000
http://a.tv.tracker.prq.to/scrape000
http://exodus.desync.com/scrape000
http://tracker.prq.to:6969/scrape000
http://tracker.ilibr.org:6969/scrape000
http://scrape.torrentsmd.com:6969/scrape000
http://tracker.ipv6tracker.org/scrape000
http://tracker.publicbt.org:80/scrape000
http://ipv6.tracker.harry.lu/scrape000
http://tracker.ilibr.org:80/scrape000
http://tracker.csze.com:80/scrape000
http://exodus.desync.com/scrape1000
http://tracker.blazing.de:80/scrape000
http://ipv4.tracker.harry.lu/scrape000
http://10.rarbg.com/scrape 000
http://gemini.tracker.prq.to/scrape000
http://tracker.jamendo.com/scrape000
http://pow7.com:80/scrape000
http://bt.rghost.net:80/scrape000
http://tracker.pow7.com:80/scrape000
http://t2.pow7.com/scrape000
http://tracker.prq.to:80/scrape000
http://tracker.token.ro:80/scrape000
http://t1.pow7.com:80/scrape000
http://10.rarbg.com:80/scrape000
Report this torrent
We will carefully monitor this report and react whenever possible.
Thanks for helping us in filtering out bad content and improving TorrentReactor for every other visitor!
Please login or register to be able to report torrents.

Your comment

Please Login or register to be able to add comments.

All comments

No one has added a comment yet. Be the first one.

Related torrents

The Hunger Games 2012 DVDRip torrent, related to The Hunger Games 2012 DVDRip torrent