The Snowtown Murders 2011 720p BDRip XviD ac3 avi X 720

The Snowtown Murders 2011 720p BDRip XviD ac3 avi X 720

Total size: 704.54 Mb
Removed by the request of copyright owner

The Snowtown Murders 2011 720p BDRip XviD ac3 avi X 720
The Snowtown Murders (2011)
Snowtown (original title)
NOT_RATED  119 min  -  Crime | Drama | Thriller   -  19 May 2011 (Australia)
6.7
Your rating:
    -/10  
Ratings: 6.7/10 from 2,923 users   Metascore: 66/100 
Reviews: 40 user | 95 critic | 13 from Metacritic.com

Director:
Justin Kurzel
Writers:
Shaun Grant, Shaun Grant (story), and 3 more credits ยป
Stars:
Lucas Pittaway, Daniel Henshall and Louise Harris 

Storyline

Sixteen-year-old Jamie lives with his mother, Elizabeth, and two younger brothers, Alex and Nicholas, in a housing trust home in Adelaide's northern suburbs. Their home is but one of many sun-starved houses crammed together to cater for a disenfranchised society. Jamie longs for an escape from the violence and hopelessness that surrounds him and his salvation arrives in the form of John, a charismatic man who unexpectedly comes to his aid. As John spends more and more time with Jamie's family, Elizabeth and her boys begin to experience a stability and sense of family that they have never known. John moves from the role of Jamie's protector to that of a mentor, indoctrinating Jamie into his world, a world brimming with bigotry, righteousness and malice. Like a son mimicking his father, Jamie soon begins to take on some of John's traits and beliefs as he spends more and more time with him and his select group of friends

----------MEDiA iNFO------------

General

Format                                   : AVI
Format/Info                              : Audio Video Interleave
Format profile                           : OpenDML
File size                                : 650 MB UP
Duration                                 : 2h 26mn
Overall bit rate                         : 4644 Kbps
Writing library                          : VirtualDub build 32842/release

Video
ID                                       : 0
Format                                   : MPEG-4 Visual
Format profile                           : Simple@L5
Format settings, BVOP                    : No
Format settings, QPel                    : No
Format settings, GMC                     : No warppoints
Format settings, Matrix                  : Default (H.263)
Codec ID                                 : XVID
Codec ID/Hint                            : XviD
Duration                                 : 2h 26mn
Bit rate                                 : 3995 Kbps
Width                                    : 1280 pixels
Height                                   : 528 pixels
Display aspect ratio                     : 2.40:1
Frame rate                               : 23.976 fps
Color space                              : YUV
Chroma subsampling                       : 4:2:0
Bit depth                                : 8 bits
Scan type                                : Progressive
Compression mode                         : Lossy
Bits/(Pixel*Frame)                       : 0.247
Stream size                              : 4.09 GiB (86%)
Writing library                          : XviD 64

Audio
ID                                       : 1
Format                                   : AC-3
Format/Info                              : Audio Coding 3
Mode extension                           : CM (complete main)
Codec ID                                 : 2000
Duration                                 : 2h 26mn
Bit rate mode                            : Constant
Bit rate                                 : 640 Kbps
Channel(s)                               : 6 channels
Channel positions                        : Front: L C R, Side: L R, LFE
Sampling rate                            : 48.0 KHz
Bit depth                                : 16 bits
Compression mode                         : Lossy
Stream size                              : 671 MiB (14%)
Alignment                                : Aligned on interleaves
Interleave, duration                     : 42 ms (1.00 video frame)
Interleave, preload duration             : 512 ms


Thanks: (chdbits.org)


I am providing tutorials here :-
http://tutorials4all.freeforums.org/index.php?sid=fb109f91dedb2901c4d0b39625c431f7
This is for opening my mkv encodes, remuxing to Bluray for PS3 or mkv or mp4 with
additional or selected audio or subtitles which I will now start supplying, so if your
fed up finding the right encode to match your player - DO IT YOURSELF - it's simples.

I allow transfer of my encodes to any site, just give me credit, as I give credit to my sources.



IMAGES:

http://jmkn-imagehosting.66ghz.com/The%20Snowtown%20Murders/Pictures%20&%20Photos%20from%20The%20Snowtown%20Murders%20-%20IMDb%202012-03-16%2020-22-15.png

http://jmkn-imagehosting.66ghz.com/The%20Snowtown%20Murders/Pictures%20&%20Photos%20from%20The%20Snowtown%20Murders%20-%20IMDb%202012-03-16%2020-22-48.png

http://jmkn-imagehosting.66ghz.com/The%20Snowtown%20Murders/Pictures%20&%20Photos%20from%20The%20Snowtown%20Murders%20-%20IMDb%202012-03-16%2020-23-15.png

http://jmkn-imagehosting.66ghz.com/The%20Snowtown%20Murders/Pictures%20&%20Photos%20from%20The%20Snowtown%20Murders%20-%20IMDb%202012-03-16%2020-23-44.png

http://jmkn-imagehosting.66ghz.com/The%20Snowtown%20Murders/Pictures%20&%20Photos%20from%20The%20Snowtown%20Murders%20-%20IMDb%202012-03-16%2020-24-30.png
FileSize
The Snowtown Murders 2011 720p BDRip XviD ac3 (avi) [X@720]/2011 720p BDRip XviD ac3 (avi) [X@720].nfo3.02 Kb
The Snowtown Murders 2011 720p BDRip XviD ac3 (avi) [X@720]/The Snowtown Murders 2011 720p BDRip XviD ac3 (avi) [X@720].avi704.53 Mb
The Snowtown Murders 2011 720p BDRip XviD ac3 (avi) [X@720]/Torrent downloaded from Demonoid.me.txt46.00 b
The Snowtown Murders 2011 720p BDRip XviD ac3 (avi) [X@720]/Torrent downloaded from h33t.com.txt33.00 b

Trackers not found

Search for full movies The Snowtown Murders 2011 720p BDRip XviD ac3 avi X 720, related to The Snowtown Murders 2011 720p BDRip XviD ac3 avi X 720