Men in Black III 2012 1080p BDRiP XViD AC3 FLAWL3SS

Men in Black III 2012 1080p BDRiP XViD AC3 FLAWL3SS

Total size: 703.99 Mb Seeds 0 Leechs 0
Men in Black III (2012) 1080p BDRiP XViD AC3 FLAWL3SS
Format                           : AVI
Format/Info                      : Audio Video Interleave
Format profile                   : OpenDML
Overall bit rate                 : 1 698 Kbps
Writing application              : VirtualDubMod 1.5.10.2 (build 2542/release)
Writing library                  : VirtualDubMod build 2542/release
Original source form             : MAX TORRENTZ
Copyright                        : SIGISMUNT

Video
ID                               : 0
Format                           : MPEG-4 Visual
Format profile                   : AdvancedSimple@L5
Format settings, BVOP            : Yes
Format settings, QPel            : No
Format settings, GMC             : No warppoints
Format settings, Matrix          : Default (H.263)
Codec ID                         : XVID
Codec ID/Hint                    : XviD
Bit rate                         : 1 245 Kbps
Width                            : 720 pixels
Height                           : 384 pixels
Display aspect ratio             : 1.875
Frame rate                       : 23.976 fps
Resolution                       : 24 bits
Colorimetry                      : 4:2:0
Scan type                        : Progressive
Bits/(Pixel*Frame)               : 0.188
Stream size                      : 983 MiB (73%)
Writing library                  : XviD 1.2.1 (UTC 2008-12-04)

Audio
ID                               : 1
Format                           : AC-3
Format/Info                      : Audio Coding 3
Codec ID                         : 2000
Duration                         : 1h 50mn
Bit rate mode                    : Constant
Bit rate                         : 448 Kbps
Channel(s)                       : 6 channels
Channel positions                : Front: L C R, Surround: L R, LFE
Sampling rate                    : 48.0 KHz
Stream size                      : 354 MiB (26%)
Alignment                        : Aligned on interleaves
Interleave, duration             : 64 ms (1.53 video frames)
Interleave, preload duration     : 192 ms


Source: DVD (perfect a/v/sync quality,sample included)
This torrent is not seedbox supported,please seed it to the MAX
FileSize
Men in Black III (2012) 1080p BDRiP XViD AC3 FLAWL3SS/MOVIE.nfo4.74 Kb
Men in Black III (2012) 1080p BDRiP XViD AC3 FLAWL3SS/Men in Black III (2012) 1080p BDRiP XViD AC3 FLAWL3SS.avi703.86 Mb
Men in Black III (2012) 1080p BDRiP XViD AC3 FLAWL3SS/Subs[ENG].srt133.49 Kb
Men in Black III (2012) 1080p BDRiP XViD AC3 FLAWL3SS/Torrent downloaded from Demoniod.me.txt42.00 b
Men in Black III (2012) 1080p BDRiP XViD AC3 FLAWL3SS/Torrent downloaded from Extratorrent.com.txt43.00 b
Men in Black III (2012) 1080p BDRiP XViD AC3 FLAWL3SS/Torrent downloaded from Rarbg.com.txt40.00 b
Men in Black III (2012) 1080p BDRiP XViD AC3 FLAWL3SS/Torrent downloaded from h33t.com.txt35.00 b
TrackerSeedsLeechsDownloaded
http://scrape.torrentsmd.com:8080/scrape.php000
http://000
http://fr33dom.h33t.com:3310/scrape100
http://www.h33t.com:3310/scrape100
http://tracker.torrent.to:2710/scrapes100
http://tracker.1337x.org/scrape000
http://exodus.desync.com:6969/scrape100
http://luckybittorrent.com:2710/scrape3762500761
http://exodus.desync.com:6969/scrapeexodus.desync.com:6969/scrape100
http://tracker.publicbits.com/scrape000
http://tracker.blazing.de/scrape000
http://tracker1.publicbt.com/scrape000
http://cpleft.com:2710/scrape100
http://tv.tracker.prq.to/scrape000
http://11.rarbg.com/scrape000
http://tracker.token.ro/scrape000
http://tpb.tracker.prq.to/scrape000
http://tracker.prq.to/scrape000
http://tracker.prq.to/scrape.php000
http://tracker.torrent.to:2710/scrape.php000
http://tracker.publicbt.org/scrape000
http://tpb.tracker.prq.to/scrape.php000
http://tracker.zond.org/scrape000
http://tv.tracker.prq.to/scrape.php000
http://vip.tracker.prq.to/scrape000
http://vtv.tv.tracker.prq.to/scrape.php000
http://torrentbay.to:6969/scrape000
http://eztv.tv.tracker.prq.to/scrape000
http://tracker.torrent.to:2710/scrape:6969/scrape000
http://tracker.publicbt.com//scrape000
http://tracker.ilibr.org/scrape000
http://vtv.tracker.prq.to/scrape000
http://the.illusionist.tracker.prq.to/scrape000
http://pow7.com/scrape000
http://tracker.jamendo.com/scrape000
http://red.tracker.prq.to/scrape000
http://tracker.torrent.to:2710/scrapeudp000
http://tracker.openbittorrent.com/scrape000
http://tracker.openbittorrent.com/scrape.php000
http://tracker.istole.it/scrape000
http://total.recall.tracker.prq.to/scrape000
http://ipv4.tracker.harry.lu/scrape000
http://tracker.torrent.to:2710/scrape000
Report this torrent
We will carefully monitor this report and react whenever possible.
Thanks for helping us in filtering out bad content and improving TorrentReactor for every other visitor!
Please login or register to be able to report torrents.

Your comment

Please Login or register to be able to add comments.

All comments

No one has added a comment yet. Be the first one.

Related movies

Search for full movies Men in Black III 2012 1080p BDRiP XViD AC3 FLAWL3SS, related to Men in Black III 2012 1080p BDRiP XViD AC3 FLAWL3SS