Download Joyful Noise 2012 R5 DVDRip XviD MAX torrent

Fake torrent

Joyful Noise 2012 R5 DVDRip XviD MAX torrent

Total size: 964.03 Mb Seeds 0 Leechs 0
http://shareimage.org/images/w2t304wk5jj1xahg747h.jpg


Joyful Noise (2012) R5 DVDRip XviD MAX


Imdb: 
http://www.imdb.com/title/tt1710396/


The plot:
Two choir members have differing opinions on how to win the national choir competition.


Sources:
DVDrip


Notes:
VERY GOOD VIDEO AND AUDIO! ENJOY!!



Video
ID                                       : 0
Format                                   : MPEG-4 Visual
Format profile                           : Advanced Simple@L5
Format settings, BVOP                    : 2
Format settings, QPel                    : No
Format settings, GMC                     : No warppoints
Format settings, Matrix                  : Default (H.263)
Muxing mode                              : Packed bitstream
Codec ID                                 : XVID
Codec ID/Hint                            : XviD
Duration                                 : 2h 2mn
Bit rate                                 : 953 Kbps
Width                                    : 720 pixels
Height                                   : 300 pixels
Display aspect ratio                     : 2.40:1
Frame rate                               : 25.000 fps
Color space                              : YUV
Chroma subsampling                       : 4:2:0
Bit depth                                : 8 bits
Scan type                                : Progressive
Compression mode                         : Lossy
Bits/(Pixel*Frame)                       : 0.176
Stream size                              : 832 MiB (71%)
Writing library                          : XviD 1.2.1 (UTC 2008-12-04)


Audio
ID                                       : 1
Format                                   : AC-3
Format/Info                              : Audio Coding 3
Mode extension                           : CM (complete main)
Codec ID                                 : 2000
Duration                                 : 2h 2mn
Bit rate mode                            : Constant
Bit rate                                 : 384 Kbps
Channel(s)                               : 6 channels
Channel positions                        : Front: L C R, Side: L R, LFE
Sampling rate                            : 48.0 KHz
Bit depth                                : 16 bits
Compression mode                         : Lossy
Stream size                              : 335 MiB (28%)
Alignment                                : Aligned on interleaves
Interleave, duration                     : 32 ms (0.80 video frame)
Interleave, preload duration             : 32 ms



[/code]
http://shareimage.org/images/cp9deoi1ek2cr3y6ix8f.jpg

Thank you smallz for banner!
FileSize
Joyful Noise (2012) R5 DVDRip XviD MAX/Joyful Noise (2012) R5 DVDRip XviD MAX.avi892.86 Mb
Joyful Noise (2012) R5 DVDRip XviD MAX/Joyful noise.mp470.91 Mb
Joyful Noise (2012) R5 DVDRip XviD MAX/MOVIE.nfo4.74 Kb
Joyful Noise (2012) R5 DVDRip XviD MAX/noise.png133.18 Kb
Joyful Noise (2012) R5 DVDRip XviD MAX/Subs[ENG].srt133.49 Kb
Joyful Noise (2012) R5 DVDRip XviD MAX/Torrent downloaded from Demoniod.me.txt42.00 b
Joyful Noise (2012) R5 DVDRip XviD MAX/Torrent downloaded from Extratorrent.com.txt43.00 b
Joyful Noise (2012) R5 DVDRip XviD MAX/Torrent downloaded from h33t.com.txt35.00 b
Joyful Noise (2012) R5 DVDRip XviD MAX/Torrent downloaded from Rarbg.com.txt40.00 b
TrackerSeedsLeechsDownloaded
http://tracker.publicbt.com/scrape000
http://10.rarbg.com/scrape000
http://pow7.com/scrape000
http://tracker.publicbt.com:80/scrape000
http://tracker.torrent.to:2710/scrape000
http://tv.tracker.prq.to/scrape000
Report this torrent
We will carefully monitor this report and react whenever possible.
Thanks for helping us in filtering out bad content and improving TorrentReactor for every other visitor!
Please login or register to be able to report torrents.

Your comment

Please Login or register to be able to add comments.

All comments

No one has added a comment yet. Be the first one.

Related torrents

Joyful Noise 2012 R5 DVDRip XviD MAX, related to Joyful Noise 2012 R5 DVDRip XviD MAX