Fake torrent

Sherlock Holmes A Game of Shadows ( 2011 ) DVDRip XviD- MAX torrent

Total size: 644.61 Mb Seeds 0 Leechs 0
Format                           : AVI
Format/Info                      : Audio Video Interleave
Format profile                   : OpenDML
Overall bit rate                 : 1 799 Kbps
Writing application              : VirtualDubMod 1.5.10.2 (build 2542/release)
Writing library                  : VirtualDubMod build 2542/release
Original source form             : MAX TORRENTZ
Copyright                        : SIGISMUNT

Video
ID                               : 0
Format                           : MPEG-4 Visual
Format profile                   : AdvancedSimple@L5
Format settings, BVOP            : Yes
Format settings, QPel            : No
Format settings, GMC             : No warppoints
Format settings, Matrix          : Custom
Codec ID                         : XVID
Codec ID/Hint                    : XviD
Bit rate                         : 1 603 Kbps
Width                            : 720 pixels
Height                           : 304 pixels
Display aspect ratio             : 2.35:1
Frame rate                       : 23.976 fps
Resolution                       : 24 bits
Colorimetry                      : 4:2:0
Scan type                        : Progressive
Bits/(Pixel*Frame)               : 0.305
Stream size                      : 1.26 GiB (89%)
Writing library                  : XviD 58

Audio
ID                               : 1
Format                           : MPEG Audio
Format version                   : Version 1
Format profile                   : Layer 3
Codec ID                         : 50
Codec ID/Hint                    : MP1
Bit rate mode                    : Constant
Bit rate                         : 192 Kbps
Channel(s)                       : 2 channels
Sampling rate                    : 48.0 KHz
Resolution                       : 16 bits
Stream size                      : 155 MiB (11%)
Alignment                        : Aligned on interleaves
Interleave, duration             : 493 ms (11.82 video frames)
Interleave, preload duration     : 216 ms
FileSize
Sherlock Holmes A Game of Shadows ( 2011 ) DVDRip XviD- MAX/att-networks.com.txt39.00 b
Sherlock Holmes A Game of Shadows ( 2011 ) DVDRip XviD- MAX/HDSceneRG.txt103.00 b
Sherlock Holmes A Game of Shadows ( 2011 ) DVDRip XviD- MAX/sceneunderground.org.txt77.00 b
Sherlock Holmes A Game of Shadows ( 2011 ) DVDRip XviD- MAX/Sherlock Holmes A Game of Shadows ( 2011 ) DVDRip XviD- MAX.avi644.46 Mb
Sherlock Holmes A Game of Shadows ( 2011 ) DVDRip XviD- MAX/Sherlock Holmes A Game of Shadows ( 2011 ) DVDRip XviD- MAX.nfo10.83 Kb
Sherlock Holmes A Game of Shadows ( 2011 ) DVDRip XviD- MAX/Subs ENG.srt80.95 Kb
Sherlock Holmes A Game of Shadows ( 2011 ) DVDRip XviD- MAX/Subs Rus.srt64.92 Kb
Sherlock Holmes A Game of Shadows ( 2011 ) DVDRip XviD- MAX/Torrent downloaded from Demonoid.me.txt46.00 b
Sherlock Holmes A Game of Shadows ( 2011 ) DVDRip XviD- MAX/Torrent downloaded from Suprnova.me.txt42.00 b
Sherlock Holmes A Game of Shadows ( 2011 ) DVDRip XviD- MAX/www.Quickertech.org.txt51.00 b
TrackerSeedsLeechsDownloaded
udp://tracker.openbittorrent.com:80/scrape000
udp://tracker.publicbt.com:80/scrape000
udp://9.rarbg.com:2710/scrape00128
http://fr33dom.h33t.com:3310/scrape000
http://tracker.thepiratebay.org/scrape000
http://tracker.novalayer.org:6969/scrape000
http://exodus.desync.com:6969/scrape000
http://tracker.torrentbay.to:6969/scrape000
http://cpleft.com:2710/scrape000
Report this torrent
We will carefully monitor this report and react whenever possible.
Thanks for helping us in filtering out bad content and improving TorrentReactor for every other visitor!
Please login or register to be able to report torrents.

Your comment
Please Login or register to be able to add comments.
All comments

No one has added a comment yet. Be the first one.

Related torrents
Sherlock Holmes A Game of Shadows ( 2011 ) DVDRip XviD- MAX, related to Sherlock Holmes A Game of Shadows ( 2011 ) DVDRip XviD- MAX