Download The Twilight Saga Breaking Dawn Part 1 2011 DVDRip Hindi torrent

Fake torrent

The Twilight Saga Breaking Dawn Part 1 2011 DVDRip Hindi torrent

Total size: 1.05 Gb Seeds 0 Leechs 0
The Twilight Saga Breaking Dawn - Part 1 2011 DVDRip[Hindi]

Format                           : AVI
Format/Info                      : Audio Video Interleave
Format profile                   : OpenDML
Duration                         : 110 minutes
Overall bit rate                 : 1 206 Kbps
Writing application              : VirtualDubMod 1.5.10.2 (build 2542/release)
Writing library                  : VirtualDubMod build 2542/release


Video
ID                               : 0
Format                           : MPEG-4 Visual
Format profile                   : AdvancedSimple@L5
Format settings, BVOP            : Yes
Format settings, QPel            : No
Format settings, GMC             : No warppoints
Format settings, Matrix          : Default (H.263)
Muxing mode                      : Packed bitstream
Codec ID                         : XVID
Codec ID/Hint                    : XviD
Duration                         : 110 minutes
Bit rate                         : 1 010 Kbps
Width                            : 640 pixels
Height                           : 272 pixels
Display aspect ratio             : 2.35:1
Frame rate                       : 23.976 fps
Resolution                       : 24 bits
Colorimetry                      : 4:2:0
Scan type                        : Progressive
Bits/(Pixel*Frame)               : 0.242
Stream size                      : 962 MiB (84%)
Writing library                  : XviD 57

Audio
ID                               : 1
Format                           : MPEG Audio
Format version                   : Version 1
Format profile                   : Layer 3
Codec ID                         : 55
Codec ID/Hint                    : MP3
Duration                         : 110 minutes
Bit rate mode                    : Constant
Bit rate                         : 192 Kbps
Channel(s)                       : 2 channels
Sampling rate                    : 48.0 KHz
Resolution                       : 16 bits
Stream size                      : 183 MiB (16%)
Alignment                        : Aligned on interleaves
Interleave, duration             : 712 ms (17.08 video frames)
Interleave, preload duration     : 216 ms
Writing library                  : LAME3.98.2

http://www.imdb.com/title/tt1324999/

Source: DVD (perfect a/v/sync quality+filtered audio with additional 400% volume , sample is included)


How To Get Your Maxspeed (uTorrent)

Torrent Client - Preferences - Bandwidth - Number of connections - Set aprox. 500 for each 
Torrent Client - Preferences - BiTorrent - Protocol Encryption - Forced
Bandwidth Allocation - High (Set download/upload limit - Unlimited)
Stop Other Active Torrents - Enjoy and Seed at least 1:1 ratio	
FileSize
The Twilight Saga Breaking Dawn - Part 1 2011 DVDRip[Hindi]/3LT0N-NFO.nfo7.94 Kb
The Twilight Saga Breaking Dawn - Part 1 2011 DVDRip[Hindi]/Screenshot1.jpg32.81 Kb
The Twilight Saga Breaking Dawn - Part 1 2011 DVDRip[Hindi]/Screenshot2.jpg19.23 Kb
The Twilight Saga Breaking Dawn - Part 1 2011 DVDRip[Hindi]/Screenshot3.jpg20.40 Kb
The Twilight Saga Breaking Dawn - Part 1 2011 DVDRip[Hindi]/Screenshot4.jpg22.96 Kb
The Twilight Saga Breaking Dawn - Part 1 2011 DVDRip[Hindi]/Subs.rar997.70 Kb
The Twilight Saga Breaking Dawn - Part 1 2011 DVDRip[Hindi]/The Twilight Saga Breaking Dawn - Part 1 2011 DVDRip[Hindi].avi1.04 Gb
The Twilight Saga Breaking Dawn - Part 1 2011 DVDRip[Hindi]/The Twilight Saga- Breaking Dawn - Part 1 Sample.avi2.16 Mb
TrackerSeedsLeechsDownloaded
http://tracker.torrentbay.to:6969/scrape000
http://fr33dom.h33t.com:3310/scrape000
http://exodus.desync.com:6969/scrape000
http://cpleft.com:2710/scrape000
http://exodus.1337x.org/scrape000
http://genesis.1337x.org:1337/scrape000
http://tracker.istole.it:80/scrape000
http://tracker.publicbt.com/scrape000
http://tracker.prq.to/scrape000
http://tracker.openbittorrent.com/scrape000
Report this torrent
We will carefully monitor this report and react whenever possible.
Thanks for helping us in filtering out bad content and improving TorrentReactor for every other visitor!
Please login or register to be able to report torrents.

Your comment

Please Login or register to be able to add comments.

All comments

No one has added a comment yet. Be the first one.

Related torrents

The Twilight Saga Breaking Dawn Part 1 2011 DVDRip Hindi, related to The Twilight Saga Breaking Dawn Part 1 2011 DVDRip Hindi