Shame 2011 DVDR(xvid), NL Gespr. DMT torrent

Total size: 1.05 Gb Seeds 0 Leechs 0
Shame 2011 DVDR(xvid), NL Gespr. DMT
Format                           : AVI
Format/Info                      : Audio Video Interleave
Format profile                   : OpenDML
Duration                         : 110 minutes
Overall bit rate                 : 1 206 Kbps
Writing application              : VirtualDubMod 1.5.10.2 (build 2542/release)
Writing library                  : VirtualDubMod build 2542/release

Video
ID                               : 0
Format                           : MPEG-4 Visual
Format profile                   : AdvancedSimple@L5
Format settings, BVOP            : Yes
Format settings, QPel            : No
Format settings, GMC             : No warppoints
Format settings, Matrix          : Default (H.263)
Muxing mode                      : Packed bitstream
Codec ID                         : XVID
Codec ID/Hint                    : XviD
Duration                         : 110 minutes
Bit rate                         : 1 010 Kbps
Width                            : 640 pixels
Height                           : 272 pixels
Display aspect ratio             : 2.35:1
Frame rate                       : 23.976 fps
Resolution                       : 24 bits
Colorimetry                      : 4:2:0
Scan type                        : Progressive
Bits/(Pixel*Frame)               : 0.242
Stream size                      : 962 MiB (84%)
Writing library                  : XviD 57

Audio
ID                               : 1
Format                           : MPEG Audio
Format version                   : Version 1
Format profile                   : Layer 3
Codec ID                         : 55
Codec ID/Hint                    : MP3
Duration                         : 110 minutes
Bit rate mode                    : Constant
Bit rate                         : 192 Kbps
Channel(s)                       : 2 channels
Sampling rate                    : 48.0 KHz
Resolution                       : 16 bits
Stream size                      : 183 MiB (16%)
Alignment                        : Aligned on interleaves
Interleave, duration             : 712 ms (17.08 video frames)
Interleave, preload duration     : 216 ms
Writing library                  : LAME3.98.2


http://www.imdb.com/title/tt1723811/


Source: DVD (perfect a/v/sync quality+filtered audio with additional 400% volume 

, sample is included)


Shame (2011)


Torrent Client - Preferences - Bandwidth - Number of connections - Set aprox. 

500 for each 
Torrent Client - Preferences - BiTorrent - Protocol Encryption - Forced
Bandwidth Allocation - High (Set download/upload limit - Unlimited)
Stop Other Active Torrents - Start downloading and wait for connections.
Enjoy and Seed for at least 1:1 ratio. Don't forget to say thanks/leave reviews.
Before downloading you should check/google search sample "release name""sample".
Greets to all actual/future p2p/scene QUALITY groups and affiliate websites.
Don't trust IMDb robot or bad ratings,always watch some trailers first.
Please spread this release/torrent to your friends/forums/etc.
If you need translation subs visit some subtitles sites.
Report if you see online streaming or other spam links.
Recommended movie player VLC PLAYER.
FileSize
Shame 2011 DVDR(xvid), NL Gespr. DMT/Donate.nfo4.74 Kb
Shame 2011 DVDR(xvid), NL Gespr. DMT/Shame 2011 DVDR(xvid), NL Gespr. DMT.avi1.05 Gb
Shame 2011 DVDR(xvid), NL Gespr. DMT/Subs.rar997.70 Kb
Shame 2011 DVDR(xvid), NL Gespr. DMT/Torrent downloaded from Demoniod.me.txt42.00 b
TrackerSeedsLeechsDownloaded
http://fr33dom.h33t.com:3310/scrape000
http://exodus.1337x.org/scrape000
http://genesis.1337x.org:1337/scrape000
http://tracker.istole.it:80/scrape000
http://tracker.torrentbay.to:6969/scrape000
http://exodus.desync.com:6969/scrape000
http://cpleft.com:2710/scrape000
http://tracker.publicbt.com/scrape000
http://tracker.prq.to/scrape000
http://tracker.openbittorrent.com/scrape000
Report this torrent
We will carefully monitor this report and react whenever possible.
Thanks for helping us in filtering out bad content and improving TorrentReactor for every other visitor!
Please login or register to be able to report torrents.

Your comment
Please Login or register to be able to add comments.
All comments

No one has added a comment yet. Be the first one.

Related torrents
Shame 2011 DVDR(xvid), NL Gespr. DMT, related to Shame 2011 DVDR(xvid), NL Gespr. DMT