Download Jack and Jill [2011]DvDrip[Eng]-FXG torrent

Fake torrent

Jack and Jill [2011]DvDrip[Eng]-FXG torrent

Total size: 999.79 Mb Seeds 0 Leechs 0
Jack and Jill [2011]DvDrip[Eng]-FXG

Format                           : AVI
Format/Info                      : Audio Video Interleave
Format profile                   : OpenDML
File size                        : 1.10 GiB
Duration                         : 1h 31mn
Overall bit rate                 : 1 799 Kbps
Writing application              : VirtualDubMod 1.5.10.2 (build 2542/release)
Writing library                  : VirtualDubMod build 2542/release
Original source form             : MAX TORRENTZ
Copyright                        : SIGISMUNT

Video
ID                               : 0
Format                           : MPEG-4 Visual
Format profile                   : AdvancedSimple@L5
Format settings, BVOP            : Yes
Format settings, QPel            : No
Format settings, GMC             : No warppoints
Format settings, Matrix          : Custom
Codec ID                         : XVID
Codec ID/Hint                    : XviD
Duration                         : 1h 31mn
Bit rate                         : 1 603 Kbps
Width                            : 720 pixels
Height                           : 304 pixels
Display aspect ratio             : 2.35:1
Frame rate                       : 23.976 fps
Resolution                       : 24 bits
Colorimetry                      : 4:2:0
Scan type                        : Progressive
Bits/(Pixel*Frame)               : 0.305
Stream size                      : 1.26 GiB (89%)
Writing library                  : XviD 58

Audio
ID                               : 1
Format                           : MPEG Audio
Format version                   : Version 1
Format profile                   : Layer 3
Codec ID                         : 50
Codec ID/Hint                    : MP1
Duration                         : 1h 31mn
Bit rate mode                    : Constant
Bit rate                         : 192 Kbps
Channel(s)                       : 2 channels
Sampling rate                    : 48.0 KHz
Resolution                       : 16 bits
Stream size                      : 155 MiB (11%)
Alignment                        : Aligned on interleaves
Interleave, duration             : 493 ms (11.82 video frames)
Interleave, preload duration     : 216 ms


Jack and Jill [2011]DvDrip[Eng]-FXG
 

How To Get Your Maxspeed (uTorrent)

Torrent Client - Preferences - Bandwidth - Number of connections - Set aprox. 500 for each 
Torrent Client - Preferences - BiTorrent - Protocol Encryption - Forced
Bandwidth Allocation - High (Set download/upload limit - Unlimited)
Stop Other Active Torrents - Start downloading and wait for connections.
Enjoy and Seed for at least 1:1 ratio. Don't forget to say thanks/leave reviews.
Before downloading you should check/google search sample "release name""sample".
Greets to all actual/future p2p/scene QUALITY groups and affiliate websites.
Don't trust IMDb robot or bad ratings,always watch some trailers first.
Ignore stupid comments/fake/mislabeled/no-DVDrips/CAM/TS/RAR uploads.
Please spread this release/torrent to your friends/forums/etc.
If you need translation subs visit some subtitles sites.
Report if you see online streaming or other spam links.
Recommended movie player VLC PLAYER.
 m
FileSize
Jack and Jill [2011]DvDrip[Eng]-FXG/Jack and Jill [2011]DvDrip[Eng]-FXG.avi933.86 Mb
Jack and Jill [2011]DvDrip[Eng]-FXG/Jack and Jill [2011]DvDrip[Eng]-FXG.nfo4.74 Kb
Jack and Jill [2011]DvDrip[Eng]-FXG/Jack_and_Jill_-_Official_Trailer_2011_(HD).mp465.80 Mb
Jack and Jill [2011]DvDrip[Eng]-FXG/Subs[ENG].srt133.49 Kb
Jack and Jill [2011]DvDrip[Eng]-FXG/Torrent downloaded from Demoniod.me.txt42.00 b
Jack and Jill [2011]DvDrip[Eng]-FXG/Torrent downloaded from Extratorrent.com.txt43.00 b
Jack and Jill [2011]DvDrip[Eng]-FXG/Torrent downloaded from h33t.com.txt35.00 b
Jack and Jill [2011]DvDrip[Eng]-FXG/Torrent downloaded from Rarbg.com.txt40.00 b
TrackerSeedsLeechsDownloaded
http://pow7.com/scrape000
http://tracker.publicbt.com/scrape000
http://10.rarbg.com/scrape000
http://tracker.publicbt.com:80/scrape000
http://tracker.torrent.to:2710/scrape000
Report this torrent
We will carefully monitor this report and react whenever possible.
Thanks for helping us in filtering out bad content and improving TorrentReactor for every other visitor!
Please login or register to be able to report torrents.

Your comment
Please Login or register to be able to add comments.
All comments

No one has added a comment yet. Be the first one.

Related torrents
Jack and Jill [2011]DvDrip[Eng]-FXG, related to Jack and Jill [2011]DvDrip[Eng]-FXG