Download Or Noir 2011 DVDRiP XviD MAXSPEED torrent

Fake torrent

Or Noir 2011 DVDRiP XviD MAXSPEED torrent

Total size: 798.36 Mb Seeds 2 Leechs 0
Or Noir (2011) DVDRiP XviD-MAXSPEED

Format                           : AVI
Format/Info                      : Audio Video Interleave
Format profile                   : OpenDML
File size                        : 700 MB
Duration                         : 1h 30mn
Overall bit rate                 : 2 126 Kbps
Writing application              : VirtualDubMod 1.5.10.2 (build 2542/release)
Writing library                  : VirtualDubMod build 2542/release
Original source form             : MAX TORRENTZ
Copyright                        : SIGISMUNT

Video
ID                               : 0
Format                           : MPEG-4 Visual
Format profile                   : AdvancedSimple@L5
Format settings, BVOP            : Yes
Format settings, QPel            : No
Format settings, GMC             : No warppoints
Format settings, Matrix          : Custom
Codec ID                         : XVID
Codec ID/Hint                    : XviD
Duration                         : 1h 30mn
Bit rate                         : 1 737 Kbps
Width                            : 720 pixels
Height                           : 400 pixels
Display aspect ratio             : 16:9
Frame rate                       : 23.976 fps
Resolution                       : 24 bits
Colorimetry                      : 4:2:0
Scan type                        : Progressive
Bits/(Pixel*Frame)               : 0.252
Stream size                      : 1.27 GiB (82%)
Writing library                  : XviD 58

Audio
ID                               : 1
Format                           : AC-3
Format/Info                      : Audio Coding 3
Codec ID                         : 2000
Duration                         : 1h 30mn
Bit rate mode                    : Constant
Bit rate                         : 384 Kbps
Channel(s)                       : 6 channels
Channel positions                : Front: L C R, Surround: L R, LFE
Sampling rate                    : 48.0 KHz
Stream size                      : 287 MiB (18%)
Alignment                        : Aligned on interleaves
Interleave, duration             : 64 ms (1.53 video frames)
Interleave, preload duration     : 192 ms


Recommandé pour tous nos films
http://www.videolan.org/vlc/

N'OUBLIEZ PAS: Dieu exige AMOUR, DE GRAINES, les pairs et un ratio TORRENT JUSTE
FileSize
Or Noir (2011) DVDRiP XviD-MAXSPEED/Or Noir (2011) DVDRiP XviD-MAXSPEED/LISEZ MOI - Important.txt2.06 Kb
Or Noir (2011) DVDRiP XviD-MAXSPEED/Or Noir (2011) DVDRiP XviD-MAXSPEED/Or Noir (2011) DVDRiP XviD-MAXSPEED.nfo2.29 Kb
Or Noir (2011) DVDRiP XviD-MAXSPEED/Or Noir (2011) DVDRiP XviD-MAXSPEED/Or Noir (2011) DVDRiP XviD-MAXSPEED.rar700.41 Mb
Or Noir (2011) DVDRiP XviD-MAXSPEED/Sampler/Or.Noir.(2011).Sample.avi82.43 Mb
Or Noir (2011) DVDRiP XviD-MAXSPEED/Sous-titres/Or Noir (2011) DVDRiP XviD-MAXSPEED.rar15.51 Mb
TrackerSeedsLeechsDownloaded
http://torrent.ubuntulinux.jp:6969/scrape000
http://papaja.v2v.cc:6970/scrape000
http://tracker.torrenty.org:6969/scrape000
http://tracker.anime-miako.to:6969/scrape100
http://bt.careland.com.cn:6969/scrape101
http://php.hdcmct.com:2710/scrape000
http://tracker.lol-game.ru:6969/scrape000
http://tracker.novalayer.org:6969/scrape000
http://tracker.torrentbay.to:6969/scrape000
http://cpleft.com:2710/scrape000
http://tracker.torrent.to:2710/scrape000
http://61.154.116.205:8000/scrape000
http://195.54.164.82/scrape000
http://tracker.episode7.com/scrape000
Report this torrent
We will carefully monitor this report and react whenever possible.
Thanks for helping us in filtering out bad content and improving TorrentReactor for every other visitor!
Please login or register to be able to report torrents.

Your comment

Please Login or register to be able to add comments.

All comments

No one has added a comment yet. Be the first one.

Related torrents

Or Noir 2011 DVDRiP XviD MAXSPEED, related to Or Noir 2011 DVDRiP XviD MAXSPEED