The Twilight Saga Breaking Dawn Part 1 2011 DVDRip

The Twilight Saga Breaking Dawn Part 1 2011 DVDRip

Total size: 1,012.72 Mb
Removed by the request of copyright owner

  • Category
  • Added
    on 2011-11-17 04:10:11
  • Hash
    bf8a64e4ebc29e0b841ac93c0a09a55a468ec75b
The.Twilight.Saga.Breaking.Dawn-Part 1.[2011].[DVDRip]


The Quileute and the Volturi close in on expecting parents Edward and Bella, whose unborn child 

poses different threats to the wolf pack and vampire coven.

Director: Bill Condon
Writers: Melissa Rosenberg, Stephenie Meyer
Stars: Kristen Stewart, Robert Pattinson and Taylor Lautner


Format                           : AVI
Format/Info                      : Audio Video Interleave
Format profile                   : OpenDML
File size                        : 1.13 GiB
Duration                         : 1h 52mn
Overall bit rate                 : 1 799 Kbps
Writing application              : VirtualDubMod 1.5.10.2 (build 2542/release)
Writing library                  : VirtualDubMod build 2542/release
Original source form             : MAX TORRENTZ
Copyright                        : SIGISMUNT

Video
ID                               : 0
Format                           : MPEG-4 Visual
Format profile                   : AdvancedSimple@L5
Format settings, BVOP            : Yes
Format settings, QPel            : No
Format settings, GMC             : No warppoints
Format settings, Matrix          : Custom
Codec ID                         : XVID
Codec ID/Hint                    : XviD
Duration                         : 117 min
Bit rate                         : 1 603 Kbps
Width                            : 720 pixels
Height                           : 304 pixels
Display aspect ratio             : 2.35:1
Frame rate                       : 23.976 fps
Resolution                       : 24 bits
Colorimetry                      : 4:2:0
Scan type                        : Progressive
Bits/(Pixel*Frame)               : 0.305
Stream size                      : 1.26 GiB (89%)
Writing library                  : XviD 58

Audio
ID                               : 1
Format                           : MPEG Audio
Format version                   : Version 1
Format profile                   : Layer 3
Codec ID                         : 50
Codec ID/Hint                    : MP1
Duration                         : 117 min
Bit rate mode                    : Constant
Bit rate                         : 192 Kbps
Channel(s)                       : 2 channels
Sampling rate                    : 48.0 KHz
Resolution                       : 16 bits
Stream size                      : 155 MiB (11%)
Alignment                        : Aligned on interleaves
Interleave, duration             : 493 ms (11.82 video frames)
Interleave, preload duration     : 216 ms
 

Source: DVD (perfect a/v/sync quality,sample included)
This torrent is not seedbox supported,please seed it to the MAX


The.Twilight.Saga.Breaking.Dawn-Part 1.[2011].[DVDRip]
 

How To Get Your Maxspeed (uTorrent)

Torrent Client - Preferences - Bandwidth - Number of connections - Set aprox. 500 for each 
Torrent Client - Preferences - BiTorrent - Protocol Encryption - Forced
Bandwidth Allocation - High (Set download/upload limit - Unlimited)
Stop Other Active Torrents - Start downloading and wait for connections.
Enjoy and Seed for at least 1:1 ratio. Don't forget to say thanks/leave reviews.
Before downloading you should check/google search sample "release name""sample".
Greets to all actual/future p2p/scene QUALITY groups and affiliate websites.
Don't trust IMDb robot or bad ratings,always watch some trailers first.
Ignore stupid comments/fake/mislabeled/no-DVDrips/CAM/TS/RAR uploads.
Please spread this release/torrent to your friends/forums/etc.
If you need translation subs visit some subtitles sites.
Report if you see online streaming or other spam links.
Recommended movie player VLC PLAYER.
FileSize
The.Twilight.Saga.Breaking.Dawn-Part 1.[2011].[DVDRip]/MOVIE.nfo4.74 Kb
The.Twilight.Saga.Breaking.Dawn-Part 1.[2011].[DVDRip]/Subs[ENG].srt133.49 Kb
The.Twilight.Saga.Breaking.Dawn-Part 1.[2011].[DVDRip]/The.Twilight.Saga.Breaking.Dawn-Part 1.[2011].[DVDRip].avi990.86 Mb
The.Twilight.Saga.Breaking.Dawn-Part 1.[2011].[DVDRip]/The_Twilight_Saga_Breaking_Dawn_Part_1_Movie_Trailer_Official_(HD).mp421.73 Mb
The.Twilight.Saga.Breaking.Dawn-Part 1.[2011].[DVDRip]/Torrent downloaded from Demoniod.me.txt42.00 b
The.Twilight.Saga.Breaking.Dawn-Part 1.[2011].[DVDRip]/Torrent downloaded from Extratorrent.com.txt43.00 b
The.Twilight.Saga.Breaking.Dawn-Part 1.[2011].[DVDRip]/Torrent downloaded from Rarbg.com.txt40.00 b
The.Twilight.Saga.Breaking.Dawn-Part 1.[2011].[DVDRip]/Torrent downloaded from h33t.com.txt35.00 b
TrackerSeedsLeechsDownloaded
http://000
http://tracker.torrent.to:2710/scrape200
http://tracker.publicbt.com/scrape000
http://10.rarbg.com/scrape000
http://pow7.com/scrape000

It's removed by the request of copyright owner, but we have tons of cool stuff like this:

Search for full movies The Twilight Saga Breaking Dawn Part 1 2011 720p BRRip x264 x0r, related to The Twilight Saga Breaking Dawn Part 1 2011 720p BRRip x264 x0r