A Very Harold and Kumar 3D Christmas 2011 D CAMRip XviD miguel RUS

A Very Harold and Kumar 3D Christmas 2011 D CAMRip XviD miguel RUS

Total size: 871.99 Mb
Removed by the request of copyright owner

  • Category
  • Added
    on 2011-11-16 01:19:38
  • Hash
    ba20987a06da78b76c3cabba53e975696eacd9e0
Format                           : AVI
Format/Info                      : Audio Video Interleave
Format profile                   : OpenDML
Duration                         : 110 minutes
Overall bit rate                 : 1 206 Kbps
Writing application              : VirtualDubMod 1.5.10.2 (build 2542/release)
Writing library                  : VirtualDubMod build 2542/release

Video
ID                               : 0
Format                           : MPEG-4 Visual
Format profile                   : AdvancedSimple@L5
Format settings, BVOP            : Yes
Format settings, QPel            : No
Format settings, GMC             : No warppoints
Format settings, Matrix          : Default (H.263)
Muxing mode                      : Packed bitstream
Codec ID                         : XVID
Codec ID/Hint                    : XviD
Duration                         : 110 minutes
Bit rate                         : 1 010 Kbps
Width                            : 640 pixels
Height                           : 272 pixels
Display aspect ratio             : 2.35:1
Frame rate                       : 23.976 fps
Resolution                       : 24 bits
Colorimetry                      : 4:2:0
Scan type                        : Progressive
Bits/(Pixel*Frame)               : 0.242
Stream size                      : 962 MiB (84%)
Writing library                  : XviD 57

Audio
ID                               : 1
Format                           : MPEG Audio
Format version                   : Version 1
Format profile                   : Layer 3
Codec ID                         : 55
Codec ID/Hint                    : MP3
Duration                         : 110 minutes
Bit rate mode                    : Constant
Bit rate                         : 192 Kbps
Channel(s)                       : 2 channels
Sampling rate                    : 48.0 KHz
Resolution                       : 16 bits
Stream size                      : 183 MiB (16%)
Alignment                        : Aligned on interleaves
Interleave, duration             : 712 ms (17.08 video frames)
Interleave, preload duration     : 216 ms
Writing library                  : LAME3.98.2


http://www.imdb.com/title/tt1268799/


Source: DVD (perfect a/v/sync quality+filtered audio with additional 400% volume , sample is included)


A Very Harold & Kumar 3D Christmas (2011)


Torrent Client - Preferences - Bandwidth - Number of connections - Set aprox. 500 for each 
Torrent Client - Preferences - BiTorrent - Protocol Encryption - Forced
Bandwidth Allocation - High (Set download/upload limit - Unlimited)
Stop Other Active Torrents - Start downloading and wait for connections.
Enjoy and Seed for at least 1:1 ratio. Don't forget to say thanks/leave reviews.
Before downloading you should check/google search sample "release name""sample".
Greets to all actual/future p2p/scene QUALITY groups and affiliate websites.
Don't trust IMDb robot or bad ratings,always watch some trailers first.
Please spread this release/torrent to your friends/forums/etc.
If you need translation subs visit some subtitles sites.
Report if you see online streaming or other spam links.
Recommended movie player VLC PLAYER.
FileSize
A Very Harold and Kumar 3D Christmas 2011[D.CAMRip.XviD-miguel] [RUS]/A Very Harold and Kumar 3D Christmas 2011[D.CAMRip.XviD-miguel] [RUS].avi871.86 Mb
A Very Harold and Kumar 3D Christmas 2011[D.CAMRip.XviD-miguel] [RUS]/Movie.nfo4.74 Kb
A Very Harold and Kumar 3D Christmas 2011[D.CAMRip.XviD-miguel] [RUS]/Subs[ENG].srt133.49 Kb
A Very Harold and Kumar 3D Christmas 2011[D.CAMRip.XviD-miguel] [RUS]/Torrent Downloaded From ExtraTorrent.com.txt353.00 b

Trackers not found

Search for full movies A Very Harold and Kumar 3D Christmas 2011 D CAMRip XviD miguel RUS, related to A Very Harold and Kumar 3D Christmas 2011 D CAMRip XviD miguel RUS