Immortals 2011 R5 Line XviD ExtraTorrent RG

Fake torrent

Immortals 2011 R5 Line XviD ExtraTorrent RG

Total size: 1.08 Gb Seeds 0 Leechs 0
Immortals 2011 R5 Line XviD ExtraTorrent RG
Immortals

release date: 11.12.11



CODEC NFO


Format: AVI

Format/Info: Audio Video Interleave

File size: 943 MiB

Duration: 1h 41mn

Overall bit rate: 1 293 Kbps

Writing library: TMPGEnc 4.0 XPress Version. 4.7.6.304



Video

ID: 0

Format: MPEG-4 Visual

Format profile: Advanced Simple@L5

Format settings, BVOP: 1

Format settings, QPel: No

Format settings, GMC: No warppoints

Format settings, Matrix: Default (MPEG)

Muxing mode: Packed bitstream

Codec ID: XVID

Codec ID/Hint: XviD

Duration: 1h 41mn

Bit rate: 1 156 Kbps

Width: 720 pixels

Height: 372 pixels

Display aspect ratio: 1.935

Frame rate: 29.970 fps

Color space: YUV

Chroma subsampling: 4:2:0

Bit depth: 8 bits

Scan type: Progressive

Compression mode: Lossy

Bits/(Pixel*Frame): 0.144

Stream size: 843 MiB (89%)

Writing library: XviD 64



Audio

ID: 1

Format: MPEG Audio

Format version: Version 1

Format profile: Layer 3

Mode: Joint stereo

Codec ID: 55

Codec ID/Hint: MP3

Duration: 1h 41mn

Bit rate mode: Constant

Bit rate: 128 Kbps

Channel(s): 2 channels

Sampling rate: 48.0 KHz

Compression mode: Lossy

Stream size: 93.3 MiB (10%)

Alignment: Aligned on interleaves

Interleave, duration: 250 ms (7.49 video frames)

Interleave, preload duration: 432 ms

RIPPER NOTE'S: Ok here our cam russian video and enlish cam audio

not bad for first release could be a lot better if it wasnt in 3D did best i could

with lil cleanup didnt take long to sync audio (thx Mate 4 audio)

FileSize
Immortals (2011) R5 Line XviD-ExtraTorrent.RG/Immortals (2011) R5 Line XviD-ExtraTorrent.RG.avi1.08 Gb
Immortals (2011) R5 Line XviD-ExtraTorrent.RG/MOVIE.nfo4.74 Kb
Immortals (2011) R5 Line XviD-ExtraTorrent.RG/Subs[ENG].srt133.49 Kb
Immortals (2011) R5 Line XviD-ExtraTorrent.RG/Torrent downloaded from Demoniod.me.txt42.00 b
Immortals (2011) R5 Line XviD-ExtraTorrent.RG/Torrent downloaded from Extratorrent.com.txt43.00 b
Immortals (2011) R5 Line XviD-ExtraTorrent.RG/Torrent downloaded from Rarbg.com.txt40.00 b
Immortals (2011) R5 Line XviD-ExtraTorrent.RG/Torrent downloaded from h33t.com.txt35.00 b
TrackerSeedsLeechsDownloaded
http://tracker.torrent.to:2710/scrape000
http://10.rarbg.com/scrape000
http://tracker.publicbt.com/scrape000
http://tracker.publicbt.com:80/scrape000
http://pow7.com/scrape000
Report this torrent
We will carefully monitor this report and react whenever possible.
Thanks for helping us in filtering out bad content and improving TorrentReactor for every other visitor!
Please login or register to be able to report torrents.

Your comment

Please Login or register to be able to add comments.

All comments

No one has added a comment yet. Be the first one.

Related movies

Search for full movies Immortals 2011 R5 Line XviD ExtraTorrent RG, related to Immortals 2011 R5 Line XviD ExtraTorrent RG