English

Your Highness (2011) DVDRip XviD

Total size: 695.94 Mb Seeds 0 Leechs 0
Your Highness (2011) DVDRip XviD
ScreenCaps: http://www.postimg.com/43000/photo-42464.jpgYour Highness (2011) DVDRip XviD-MAXFormat                           : wmvFormat/Info                      : Windows Media VideoFormat profile                   : OpenDMLFile size                        : 702 MiBDuration                         : 1h 45mnOverall bit rate                 : 1 592 KbpsWriting application              : VirtualDubMod 1.5.10.2 (build 2542/release)Writing library                  : VirtualDubMod build 2542/releaseOriginal source form             : MAX TORRENTZCopyright                        : SIGISMUNTVideoID                               : 0Format                           : MPEG-4 VisualFormat profile                   : AdvancedSimple@L5Format settings, BVOP            : YesFormat settings, QPel            : NoFormat settings, GMC             : No warppointsFormat settings, Matrix          : Default (H.263)Muxing mode                      : Packed bitstreamCodec ID                         : XVIDCodec ID/Hint                    : XviDDuration                         : 1h 45mnBit rate                         : 1 396 KbpsWidth                            : 624 pixelsHeight                           : 256 pixelsDisplay aspect ratio             : 2.40:1Frame rate                       : 23.976 fpsResolution                       : 24 bitsColorimetry                      : 4:2:0Scan type                        : ProgressiveBits/(Pixel*Frame)               : 0.365Stream size                      : 1.03 GiB (88%)Writing library                  : XviD 57AudioID                               : 1Format                           : MPEG AudioFormat version                   : Version 1Format profile                   : Layer 2Codec ID                         : 50Codec ID/Hint                    : MP1Duration                         : 1h 45mnBit rate mode                    : ConstantBit rate                         : 192 KbpsChannel(s)                       : 2 channelsSampling rate                    : 48.0 KHzResolution                       : 16 bitsStream size                      : 145 MiB (12%)Alignment                        : Aligned on interleavesInterleave, duration             : 559 ms (13.41 video frames)Interleave, preload duration     : 216 msSource: DVD (perfect a/v/sync quality,sample is included)This torrent is not seedbox supported,please seed it to the MAX  http://www.imdb.com/title/tt1240982/
FileSize
sample.avi9.35 Mb
screencaps.jpeg619.00 Kb
Torrent downloaded from Demonoid.me.txt46.00 b
Torrent downloaded from Extratorrent.com.txt40.00 b
Torrent downloaded from h33t.com.txt32.00 b
Torrent downloaded from Rarbg.com.txt33.00 b
Your Highness (2011) DVDRip XviD-MAXSPEED.nfo2.73 Kb
Your Highness (2011) DVDRip XviD-MAXSPEED.wmv685.98 Mb
TrackerSeedsLeechsDownloaded
udp://tracker.openbittorrent.com:80/scrape000
udp://tracker.publicbt.com:80/scrape000
http://genesis.1337x.org:1337/scrape000
http://exodus.1337x.org/scrape000
http://bgtorrent.com/scrape.php000

Report this torrent

We will carefully monitor this report and react whenever possible.
Thanks for helping us in filtering out bad content and improving TorrentReactor for every other visitor!
Please login or register to be able to report torrents.

Your comment

Please Login or register to be able to add comments.

All comments

No one has added a comment yet. Be the first one.

Related torrents

Your Highness (2011) DVDRip XviD, related to Your Highness (2011) DVDRip XviD