The Grey 2011 BRRip nLiVE

Fake torrent

The Grey 2011 BRRip nLiVE

Total size: 614.31 Mb Seeds 0 Leechs 0
The Grey 2011 BRRip nLiVE
http://www.scenetime.com    -   SceneTime [ We been having it ] !!!


How come you press harder on a remote control when you know the battery is dead? so you better seed to get speed ;)

        Seed back for speed


...................................NFO:.................................................General
  
Format                           : AVI
Format/Info                      : Audio Video Interleave
Duration                         : 1h 51mn
Overall bit rate                 : 866 Kbps

Video
ID                               : 0
Format                           : MPEG-4 Visual
Format profile                   : Advanced Simple@L5
Format settings, BVOP            : 2
Format settings, QPel            : No
Format settings, GMC             : No warppoints
Format settings, Matrix          : Default (H.263)
Codec ID                         : XVID
Codec ID/Hint                    : XviD
Duration                         : 1h 51mn
Bit rate                         : 730 Kbps
Width                            : 720 pixels
Height                           : 304 pixels
Display aspect ratio             : 2.35:1
Frame rate                       : 29.970 fps
Color space                      : YUV
Chroma subsampling               : 4:2:0
Bit depth                        : 8 bits
Scan type                        : Progressive
Compression mode                 : Lossy
Bits/(Pixel*Frame)               : 0.111
Stream size                      : 585 MiB (84%)


Audio
ID                               : 1
Format                           : MPEG Audio
Format version                   : Version 1
Format profile                   : Layer 3
Mode                             : Joint stereo
Mode extension                   : MS Stereo
Codec ID                         : 55
Codec ID/Hint                    : MP3
Duration                         : 1h 51mn
Bit rate mode                    : Constant
Bit rate                         : 128 Kbps
Channel(s)                       : 2 channels
Sampling rate                    : 48.0 KHz
Compression mode                 : Lossy
Stream size                      : 102 MiB (15%)
Alignment                        : Aligned on interleaves
Interleave, duration             : 133 ms (4.00 video frames)
Interleave, preload duration     : 216 ms		
FileSize
The Grey .2011.BRRip-nLiVE/BRRip-nLiVE.nfo2.98 Kb
The Grey .2011.BRRip-nLiVE/The Grey .2011.BRRip-nLiVE.avi614.30 Mb
The Grey .2011.BRRip-nLiVE/Torrent downloaded from Demonoid.me.txt46.00 b
The Grey .2011.BRRip-nLiVE/Torrent downloaded from Extratorrent.com.txt40.00 b
The Grey .2011.BRRip-nLiVE/Torrent downloaded from h33t.com.txt32.00 b
The Grey .2011.BRRip-nLiVE/Torrent downloaded from Rarbg.com.txt33.00 b
TrackerSeedsLeechsDownloaded
udp://tracker.openbittorrent.com:80/scrape000
http://tracker.openbittorrent.com/scrape000
http://tracker.ilibr.org:6969/scrape000
http://tracker.publicbt.com/scrape000
http://10.rarbg.com:80/scrape000
http://tracker.openbittorrent.com:80/scrape000
http://9.rarbg.com:2710/scrape000
Report this torrent
We will carefully monitor this report and react whenever possible.
Thanks for helping us in filtering out bad content and improving TorrentReactor for every other visitor!
Please login or register to be able to report torrents.

Your comment

Please Login or register to be able to add comments.

All comments

No one has added a comment yet. Be the first one.

Related movies

Search for full movies The Grey 2011 BRRip nLiVE, related to The Grey 2011 BRRip nLiVE