Download The Lion King 2011 DVDRip XviD MAX torrent

Fake torrent

The Lion King 2011 DVDRip XviD MAX torrent

Total size: 839.98 Mb Seeds 0 Leechs 0
The Lion King 2011 DVDRip XviD MAX
[COLOR=#FF9900]Image Links:[/COLOR]http://www.hotimg.com/direct/GtttnJ8.jpghttp://www.hotimg.com/direct/ghBqq84.jpghttp://www.hotimg.com/direct/vhrpADH.jpghttp://www.hotimg.com/direct/DACpGvX.jpg[COLOR=#FF9900]Alternatives:[/COLOR][img]http://shareimage.org/images/wryjyxh2nqkybjwvt1xl.jpg[/img][img]http://shareimage.org/images/gz0sg40h05l4my4knj9.jpg[/img][img]http://shareimage.org/images/99nlbynw11kgmgl13wh.jpg[/img][img]http://shareimage.org/images/bk8kpqj634uyekify2by.jpg[/img][COLOR=#FF9900][SIZE=14]The Lion King 3D VERSION(2011) DVDRip XviD-MAX[/SIZE][/COLOR]Format                           : AVIFormat/Info                      : Audio Video InterleaveFormat profile                   : OpenDMLDuration                         : 1h 37mnOverall bit rate                 : 2 151 KbpsWriting application              : VirtualDubMod 1.5.10.2 (build 2542/release)Writing library                  : VirtualDubMod build 2542/releaseOriginal source form             : MAX TORRENTZCopyright                        : SIGISMUNTVideoID                               : 0Format                           : MPEG-4 VisualFormat profile                   : AdvancedSimple@L5Format settings, BVOP            : YesFormat settings, QPel            : NoFormat settings, GMC             : No warppointsFormat settings, Matrix          : CustomCodec ID                         : XVIDCodec ID/Hint                    : XviDDuration                         : 1h 37mnBit rate                         : 1 950 KbpsWidth                            : 672 pixelsHeight                           : 288 pixelsDisplay aspect ratio             : 2.35:1Frame rate                       : 29.970 fpsResolution                       : 24 bitsColorimetry                      : 4:2:0Scan type                        : ProgressiveBits/(Pixel*Frame)               : 0.336Stream size                      : 1.33 GiB (91%)Writing library                  : XviD 1.2.1 (UTC 2008-12-04)AudioID                               : 1Format                           : MPEG AudioFormat version                   : Version 1Format profile                   : Layer 3Codec ID                         : 55Codec ID/Hint                    : MP3Duration                         : 1h 37mnBit rate mode                    : ConstantBit rate                         : 192 KbpsChannel(s)                       : 2 channelsSampling rate                    : 48.0 KHzResolution                       : 16 bitsStream size                      : 134 MiB (9%)Alignment                        : Aligned on interleavesInterleave, duration             : 24 ms (0.72 video frame)Interleave, preload duration     : 192 ms [COLOR=#DD0000]http://www.imdb.com/title/tt0110357/[/COLOR]Source: DVDRip (perfect a/v/sync quality-original source resynced,sample included)This torrent is not seedbox supported,please seed it to the MAXNote:If you have something to offer as early releases,seedboxes,links,accounts,etcplease contact us on piratepedia[@]msn/gmail.com or our website torentz 3xforum roThe Lion King (2011) DVDRip XviD-MAX Torrent Free DownloadHow To Get Your Maxspeed (uTorrent)Torrent Client - Preferences - Bandwidth - Number of connections - Set aprox. 500 for each Torrent Client - Preferences - BiTorrent - Protocol Encryption - ForcedBandwidth Allocation - High (Set download/upload limit - Unlimited)Stop Other Active Torrents - Start downloading and wait for connections.Enjoy and Seed for at least 1:1 ratio. Don't forget to say thanks/leave reviews.Before downloading you should check/google search sample "release name""sample".Greets to all actual/future p2p/scene QUALITY groups and affiliate websites.Don't trust IMDb robot or bad ratings,always watch some trailers first.Ignore stupid comments/fake/mislabeled/no-DVDrips/CAM/TS/RAR uploads.Please spread this release/torrent to your friends/forums/etc.If you need translation subs visit some subtitles sites.Report if you see online streaming or other spam links.Recommended movie player VLC PLAYER.
FileSize
The Hangover 2 (2011) DVDRip XviD-MAXSPEED.nfo2.98 Kb
The Lion King (2011) DVDRip XviD-MAXSPEED www.torentz.3xforum.ro.avi839.98 Mb
Torrent downloaded from Demonoid.me.txt46.00 b
Torrent downloaded from Extratorrent.com.txt40.00 b
Torrent downloaded from h33t.com.txt32.00 b
Torrent downloaded from Rarbg.com.txt33.00 b
TrackerSeedsLeechsDownloaded
udp://tracker.openbittorrent.com:80/scrape000
udp://tracker.publicbt.com:80/scrape000
http://tracker.1337x.org:80/scrape000
http://tracker.istole.it:80/scrape000
http://genesis.1337x.org:1337/scrape000
http://exodus.1337x.org/scrape000
http://i.bandito.org/scrape000
http://tracker.torrent.to:2710/scrape000
http://9.rarbg.com:2710/scrape000
http://tracker.openbittorrent.com/scrape000
http://exodus.desync.com:6969/scrape000
http://tracker.publicbt.com:80/scrape000
http://tracker.torrentbay.to:6969/scrape000
http://tracker.publicbt.com/scrape000
http://cpleft.com:2710/scrape000
http://tracker.novalayer.org:6969/scrape000
http://tracker.openbittorrent.com:80/scrape000
http://tracker.prq.to/scrape000
http://t1.pow7.com/scrape000
http://pow7.com/scrape000
Report this torrent
We will carefully monitor this report and react whenever possible.
Thanks for helping us in filtering out bad content and improving TorrentReactor for every other visitor!
Please login or register to be able to report torrents.

Your comment

Please Login or register to be able to add comments.

All comments

No one has added a comment yet. Be the first one.

Related torrents

The Lion King 2011 DVDRip XviD MAX, related to The Lion King 2011 DVDRip XviD MAX